<?xml version="1.0" standalone="no"?>
<!DOCTYPE svg PUBLIC "-//W3C//DTD SVG 1.1//EN" "http://www.w3.org/Graphics/SVG/1.1/DTD/svg11.dtd" >
<svg xmlns="http://www.w3.org/2000/svg">
<metadata>
This is a custom SVG webfont generated by Font Squirrel.
Copyright   : Copyright URW copyright 1999 by URW Design  Development Cyrillic glyphs added by Valek Filippov copyright 20012002 Vietnamese characters were added by Han The Thanh copyright 2006 2008 for TeX Gyre extensions by B Jackowski and JM Nowacki on behalf of TeX users groups This work is released under the GUST Font License   see httptugorgfontslicensesGUSTFONTLICENSEtxt for details
</metadata>
<defs>
<font id="webfontSu1z7EGN" horiz-adv-x="1134" >
<font-face units-per-em="2048" ascent="1655" descent="-393" />
<missing-glyph horiz-adv-x="567" />
<glyph unicode=" "  horiz-adv-x="567" />
<glyph unicode="&#x09;" horiz-adv-x="567" />
<glyph unicode="&#xa0;" horiz-adv-x="567" />
<glyph unicode="!" horiz-adv-x="604" d="M166 0l47 258h152l-48 -258h-151zM242 403l204 1110h152l-205 -1110h-151z" />
<glyph unicode="&#x22;" horiz-adv-x="632" d="M285 1051l86 462h102l-86 -462h-102zM516 1051l86 462h103l-87 -462h-102z" />
<glyph unicode="#" d="M43 485l23 123h262l121 320h-248l22 123h271l174 462h131l-172 -462h260l170 462h135l-170 -462h227l-22 -123h-250l-117 -320h236l-23 -123h-258l-178 -485h-135l178 485h-264l-180 -485h-136l183 485h-240zM463 608h262l117 320h-260z" />
<glyph unicode="$" d="M168 365q0 37 12 102h139q-4 -49 -4 -66q0 -96 60.5 -156.5t159.5 -60.5q133 0 226 97.5t93 234.5q0 84 -47 134t-182 93q-160 49 -221.5 122t-61.5 186q0 162 105.5 285.5t269.5 154.5l31 168h135l-31 -168q139 -31 201.5 -105.5t62.5 -211.5q0 -8 -4 -54h-143 q4 47 4 66q0 78 -55.5 127t-141.5 49q-121 0 -204 -87t-83 -218q0 -59 46.5 -99t166.5 -81q184 -63 247 -138t63 -198q0 -170 -115 -308.5t-311 -173.5l-33 -174h-135l33 174q-117 16 -200 96.5t-83 209.5z" />
<glyph unicode="%" horiz-adv-x="1587" d="M178 1110q0 160 131 292t303 132q127 0 212 -84t85 -209q0 -166 -131 -297t-297 -131q-131 0 -217 84t-86 213zM313 0l959 1513h153l-964 -1513h-148zM317 1130q0 -76 51.5 -127t129.5 -51q109 0 190.5 80t81.5 187q0 74 -52 125t-128 51q-109 0 -191 -79.5t-82 -185.5z M815 270q0 164 132 293t302 129q127 0 212 -84t85 -209q0 -166 -131 -296t-299 -130q-131 0 -216 84t-85 213zM954 291q0 -76 52.5 -127t128.5 -51q109 0 190.5 79.5t81.5 186.5q0 72 -52 123t-128 51q-106 0 -189.5 -80t-83.5 -182z" />
<glyph unicode="&#x26;" horiz-adv-x="1550" d="M129 354q0 125 69.5 244t190.5 195l146 75q20 10 34 19q-113 154 -112 260q0 156 129 274.5t299 118.5q135 0 220 -77t85 -199q0 -141 -81 -235.5t-288 -186.5l236 -283l299 426h168l-377 -534l313 -373l-123 -105l-288 340q-219 -340 -525 -340q-180 0 -287.5 103.5 t-107.5 277.5zM276 362q0 -109 76 -179t193 -70q104 0 212.5 79.5t198.5 229.5l-299 356q-209 -96 -295 -189.5t-86 -226.5zM614 1171q0 -47 25 -92t92 -129q188 78 249.5 135.5t61.5 149.5q0 78 -48 122t-132 44q-94 0 -171 -70t-77 -160z" />
<glyph unicode="'" horiz-adv-x="405" d="M285 1051l86 462h102l-86 -462h-102z" />
<glyph unicode="(" horiz-adv-x="755" d="M156 453q0 201 91 415.5t266 395t392 249.5l-24 -129q-276 -166 -422 -412.5t-146 -496.5q0 -397 289 -598l-24 -133q-201 80 -311.5 278t-110.5 431z" />
<glyph unicode=")" horiz-adv-x="755" d="M-41 -256l25 131q242 129 405.5 390t163.5 517q0 379 -291 598l25 133q193 -70 308.5 -272.5t115.5 -437.5q0 -205 -92.5 -417t-266.5 -387t-393 -255z" />
<glyph unicode="*" horiz-adv-x="870" d="M291 1233l20 106l215 -45l-82 209l113 37l70 -205l143 168l84 -78l-149 -165l210 -33l-18 -107l-209 43l80 -205l-109 -38l-71 206l-144 -163l-90 73l154 162z" />
<glyph unicode="+" horiz-adv-x="1241" d="M176 436v152h416v416h151v-416h416v-152h-416v-416h-151v416h-416z" />
<glyph unicode="," horiz-adv-x="567" d="M100 -137l254 395h150l-254 -395h-150z" />
<glyph unicode="-" horiz-adv-x="679" d="M102 477l25 129h557l-25 -129h-557z" />
<glyph unicode="." horiz-adv-x="567" d="M145 0l48 258h151l-47 -258h-152z" />
<glyph unicode="/" horiz-adv-x="894" d="M-29 -262l920 1775h141l-923 -1775h-138z" />
<glyph unicode="0" d="M84 358q0 96 16 174l4 19l80 430q51 279 210 419t401 140q182 0 298.5 -103.5t116.5 -258.5q0 -96 -18 -197l-80 -430q-109 -578 -606 -578q-195 0 -308.5 103.5t-113.5 281.5zM242 387q0 -123 79.5 -198.5t210.5 -75.5q176 0 283 109.5t152 352.5l67 371q18 109 19 180 q0 129 -81 202t-206 73q-358 0 -440 -455l-68 -371q-16 -75 -16 -188z" />
<glyph unicode="1" d="M512 1376l25 137h407l-280 -1513h-150l256 1376h-258z" />
<glyph unicode="2" d="M6 0l25 137l626 512q219 178 293 278.5t74 219.5q0 115 -73.5 184.5t-196.5 69.5q-156 0 -261.5 -100.5t-134.5 -276.5h-149q35 229 193.5 372.5t377.5 143.5q180 0 291 -101.5t111 -267.5q0 -152 -80 -274.5t-293 -294.5l-573 -465h755l-24 -137h-961z" />
<glyph unicode="3" d="M84 350q0 45 6 123h150l-2 -31q0 -176 68.5 -252.5t199.5 -76.5q158 0 277.5 120.5t119.5 282.5q0 152 -93 215.5t-278 63.5l25 135l80 -4q125 0 212 82t87 206q0 82 -51 134.5t-140 52.5q-109 0 -188.5 -75t-91.5 -189h-150q39 190 167 296.5t294 106.5q143 0 230.5 -84 t87.5 -219q0 -231 -222 -371q188 -100 189 -313q0 -229 -172 -404.5t-397 -175.5q-180 0 -294 106.5t-114 270.5z" />
<glyph unicode="4" d="M14 276l25 138l944 1099h178l-205 -1099h140l-25 -138h-139l-51 -276h-150l51 276h-768zM215 414h592l166 891z" />
<glyph unicode="5" d="M76 389v86h147q0 -182 81 -272t214 -90q180 0 312.5 141t132.5 332q0 135 -82 220t-213 85q-176 0 -344 -168l-109 45l272 745h687l-25 -137h-565l-152 -418q152 72 279 72q182 0 295.5 -117.5t113.5 -304.5q0 -250 -189.5 -442.5t-426.5 -192.5q-176 0 -302 117 t-126 299z" />
<glyph unicode="6" d="M74 387q0 145 50 257t224 312l477 557h174l-452 -526q102 43 186 43q172 0 281.5 -116.5t109.5 -301.5q0 -258 -184 -448.5t-434 -190.5q-190 0 -311 116t-121 298zM231 418q0 -139 83 -222t221 -83q172 0 302 144t130 329q0 137 -79 221t-210 84q-176 0 -311.5 -140 t-135.5 -333z" />
<glyph unicode="7" d="M160 0l882 1376h-716l24 137h873l-25 -137l-879 -1376h-159z" />
<glyph unicode="8" d="M98 360q0 152 91.5 284t246.5 202q-76 57 -101.5 106t-25.5 127q0 186 149.5 323.5t334.5 137.5q150 0 241.5 -85t91.5 -220q0 -127 -59 -231.5t-184 -157.5q195 -102 194 -299q0 -238 -166 -406t-401 -168q-188 0 -300 105.5t-112 281.5zM256 371q0 -113 78 -185.5 t196 -72.5q162 0 278 117.5t116 281.5q0 115 -75 185.5t-196 70.5q-162 0 -279.5 -115.5t-117.5 -281.5zM467 1108q0 -84 61.5 -141.5t151.5 -57.5q117 0 203 90.5t86 202.5q0 90 -55.5 144.5t-149.5 54.5q-121 0 -209 -87t-88 -206z" />
<glyph unicode="9" d="M168 891q0 262 183.5 455.5t430.5 193.5q195 0 316 -114.5t121 -299.5q0 -145 -66 -280q-45 -94 -211 -289l-477 -557h-174l454 526q-102 -43 -186 -43q-170 0 -280.5 116t-110.5 292zM326 932q0 -139 77.5 -224t208.5 -85q182 0 315.5 139t133.5 328q0 139 -84 225 t-219 86q-176 0 -304 -146.5t-128 -322.5z" />
<glyph unicode=":" horiz-adv-x="567" d="M145 0l48 258h151l-47 -258h-152zM293 780l47 258h152l-48 -258h-151z" />
<glyph unicode=";" horiz-adv-x="567" d="M-2 -137l256 395h147l-254 -395h-149zM350 780l47 258h152l-47 -258h-152z" />
<glyph unicode="&#x3c;" horiz-adv-x="1241" d="M256 455v114l774 650v-197l-606 -510l606 -510v-197z" />
<glyph unicode="=" horiz-adv-x="1241" d="M176 248v151h983v-151h-983zM176 625v151h983v-151h-983z" />
<glyph unicode="&#x3e;" horiz-adv-x="1241" d="M256 2l606 510l-606 510v197l774 -650v-114l-774 -650v197z" />
<glyph unicode="?" horiz-adv-x="1210" d="M264 1040q53 242 207 371t365 129q176 0 281.5 -98.5t105.5 -259.5q0 -131 -51.5 -221.5t-206.5 -212.5q-133 -106 -193.5 -186.5t-77.5 -166.5h-143q18 209 285 418q135 106 174 166q55 80 55 182q0 106 -71.5 173t-186.5 67q-303 0 -399 -361h-144zM473 0l47 258h152 l-47 -258h-152z" />
<glyph unicode="@" horiz-adv-x="1775" d="M211 610q0 242 132 457t352 344t468 129q252 0 418 -152.5t166 -386.5q0 -160 -92 -328.5t-232.5 -278t-271.5 -109.5q-74 0 -110.5 26.5t-51.5 89.5q-135 -106 -264 -106q-106 0 -168.5 62.5t-62.5 168.5q0 147 98 310t244.5 270.5t277.5 107.5q168 0 209 -141l53 103 h125l-297 -570q-53 -111 -61 -131t-8 -43q0 -16 18 -28.5t45 -12.5q82 0 185.5 87t179 230.5t75.5 278.5q0 197 -142 322t-366 125q-313 0 -562 -247t-249 -558q0 -240 159 -394.5t405 -154.5q281 0 516 203l69 -68q-266 -242 -622 -242q-274 0 -454.5 180.5t-180.5 456.5z M641 555q0 -66 36 -103.5t95 -37.5q82 0 155.5 58t162.5 192q135 207 135 323q0 53 -33 86t-92 35h-10q-90 0 -197 -91t-179.5 -222t-72.5 -240z" />
<glyph unicode="A" horiz-adv-x="1515" d="M-39 0l930 1513h170l371 -1513h-166l-125 510h-705l-315 -510h-160zM520 647h588l-164 694z" />
<glyph unicode="B" horiz-adv-x="1175" d="M94 0l281 1513h354q231 0 342 -71.5t111 -222.5q0 -137 -60.5 -249t-185.5 -163q115 -55 161 -116.5t46 -158.5q0 -117 -47 -224t-127 -177q-82 -72 -196 -101.5t-304 -29.5h-375zM270 137h207q283 0 395.5 94.5t112.5 264.5q0 133 -102 188q-76 41 -322 41h-186z M406 862h184q139 0 215 18.5t127 65.5q92 86 92 238q0 109 -72.5 150.5t-265.5 41.5h-184z" />
<glyph unicode="C" horiz-adv-x="1665" d="M156 594q0 252 129 470t348 347t471 129q233 0 404 -116.5t210 -303.5h-168q-125 281 -467 281q-197 0 -375 -105.5t-286.5 -283.5t-108.5 -377q0 -227 151.5 -374.5t383.5 -147.5q315 0 575 284h168q-137 -201 -337.5 -312.5t-430.5 -111.5q-297 0 -482 173.5 t-185 447.5z" />
<glyph unicode="D" horiz-adv-x="1523" d="M94 0l281 1513h356q381 0 551 -118q242 -166 242 -477q0 -209 -88 -393.5t-250 -315.5q-139 -111 -299 -160t-385 -49h-408zM270 137h211q238 0 385.5 46t263.5 155q109 100 172.5 249.5t63.5 303.5q0 238 -150.5 361.5t-502.5 123.5h-211z" />
<glyph unicode="E" horiz-adv-x="1097" d="M94 0l281 1513h827l-24 -137h-676l-103 -542h654l-25 -138h-653l-105 -559h676l-24 -137h-828z" />
<glyph unicode="F" horiz-adv-x="993" d="M94 0l281 1513h768l-25 -137h-616l-103 -547h594l-24 -137h-594l-129 -692h-152z" />
<glyph unicode="G" horiz-adv-x="1785" d="M158 614q0 180 78.5 350.5t208.5 296t307.5 202.5t363.5 77q248 0 422 -117.5t217 -312.5h-172q-47 133 -175 212t-298 79q-322 0 -558.5 -227.5t-236.5 -534.5q0 -238 157 -382t398 -144q215 0 404.5 122.5t288.5 325.5h-848l24 137h1030q-76 -301 -340 -513t-577 -212 q-305 0 -499.5 179t-194.5 462z" />
<glyph unicode="H" horiz-adv-x="1398" d="M94 0l281 1513h151l-123 -665h785l123 665h151l-280 -1513h-152l131 711h-784l-131 -711h-152z" />
<glyph unicode="I" horiz-adv-x="462" d="M94 0l281 1513h151l-280 -1513h-152z" />
<glyph unicode="J" horiz-adv-x="987" d="M23 299q0 37 4 59h149q12 -131 57.5 -189t151.5 -58q127 0 205 88t115 274l194 1040h152l-195 -1040q-45 -248 -171 -375t-323 -127q-158 0 -248.5 84t-90.5 244z" />
<glyph unicode="K" horiz-adv-x="1210" d="M94 0l281 1513h151l-161 -870l862 870h190l-735 -737l455 -776h-191l-383 655l-241 -241l-76 -414h-152z" />
<glyph unicode="L" horiz-adv-x="946" d="M94 0l281 1513h151l-256 -1376h627l-25 -137h-778z" />
<glyph unicode="M" horiz-adv-x="1882" d="M94 0l281 1513h235l312 -1288l788 1288h236l-281 -1513h-152l250 1348l-819 -1348h-131l-317 1348l-250 -1348h-152z" />
<glyph unicode="N" horiz-adv-x="1515" d="M94 0l281 1513h205l614 -1255l233 1255h152l-281 -1513h-151l-655 1331l-246 -1331h-152z" />
<glyph unicode="O" horiz-adv-x="1779" d="M156 618q0 236 136 450t360.5 343t469.5 129q272 0 466 -183t194 -464q0 -233 -136.5 -447.5t-360.5 -343.5t-470 -129q-276 0 -467.5 184.5t-191.5 460.5zM313 647q0 -225 152.5 -379.5t374.5 -154.5q305 0 544.5 230t239.5 521q0 233 -151.5 385t-387.5 152 q-293 0 -532.5 -233.5t-239.5 -520.5z" />
<glyph unicode="P" horiz-adv-x="1212" d="M94 0l281 1513h420q268 0 386.5 -80.5t118.5 -261.5q0 -117 -41.5 -226t-117.5 -185q-80 -80 -192.5 -114t-299.5 -34h-291l-112 -612h-152zM385 750h281q147 0 232 24.5t140 83.5q47 51 76 129t29 156q0 131 -96 188q-74 45 -330 45h-215z" />
<glyph unicode="Q" horiz-adv-x="1783" d="M154 612q0 246 139 462t364.5 341t470.5 125q305 0 492.5 -173t187.5 -452q0 -211 -99 -406.5t-269 -318.5q90 -78 180 -77q18 0 33 2l-27 -142q-111 2 -173 29t-134 102q-209 -131 -477 -131q-297 0 -492.5 182.5t-195.5 456.5zM309 571q180 53 346 54q211 0 359.5 -74 t335.5 -260q162 143 231.5 280.5t69.5 302.5q0 236 -150.5 381.5t-394.5 145.5q-326 0 -560.5 -233.5t-234.5 -583.5zM350 442q33 -123 180.5 -226t331.5 -103q182 0 352 92q-135 150 -278 215t-334 65q-139 0 -252 -43z" />
<glyph unicode="R" horiz-adv-x="1243" d="M94 0l281 1513h375q307 0 437 -91t130 -289q0 -233 -149.5 -390t-389.5 -178l320 -565h-189l-383 686q289 0 410 49q98 41 160.5 145.5t62.5 227.5q0 145 -102.5 206.5t-341.5 61.5h-213l-256 -1376h-152z" />
<glyph unicode="S" horiz-adv-x="1019" d="M53 338q0 20 4 86h162q0 -164 64.5 -237.5t195.5 -73.5q147 0 255 107.5t108 254.5q0 94 -61.5 148.5t-223.5 105.5q-199 61 -260 134t-61 202q0 182 148 328.5t355 146.5q160 0 257.5 -91t97.5 -241q0 -23 -7 -78h-157q0 270 -217 271q-133 0 -226.5 -97.5t-93.5 -216.5 q0 -31 13.5 -69.5t31.5 -56.5q23 -23 60 -40.5t147 -54.5q225 -76 289 -155q66 -84 65 -207q0 -209 -165.5 -370t-384.5 -161q-174 0 -285 101.5t-111 263.5z" />
<glyph unicode="T" horiz-adv-x="872" d="M209 1376l24 137h844l-24 -137h-346l-256 -1376h-152l256 1376h-346z" />
<glyph unicode="U" horiz-adv-x="1341" d="M182 354q0 90 23 215l174 944h151l-174 -944q-18 -98 -18 -184q0 -121 82 -196.5t213 -75.5q172 0 287.5 112.5t158.5 343.5l174 944h152l-174 -944q-55 -297 -220 -446.5t-405 -149.5q-188 0 -306 106.5t-118 274.5z" />
<glyph unicode="V" horiz-adv-x="1437" d="M240 1513h166l286 -1325l781 1325h163l-907 -1513h-147z" />
<glyph unicode="W" horiz-adv-x="1966" d="M240 1513h155l129 -1316l606 1316h144l119 -1316l616 1316h156l-715 -1513h-195l-106 1241l-561 -1241h-197z" />
<glyph unicode="X" horiz-adv-x="1247" d="M-45 0l657 774l-348 739h178l289 -606l512 606h176l-622 -739l372 -774h-180l-305 647l-551 -647h-178z" />
<glyph unicode="Y" horiz-adv-x="1212" d="M223 1513h168l273 -847l598 847h165l-714 -1007l-95 -506h-151l94 506z" />
<glyph unicode="Z" horiz-adv-x="983" d="M-27 0l25 137l975 1239h-721l24 137h891l-24 -137l-973 -1239h764l-25 -137h-936z" />
<glyph unicode="[" horiz-adv-x="718" d="M209 176q0 53 20 160l113 610q33 207 173 361.5t345 205.5l-29 -153q-156 -59 -235.5 -159.5t-116.5 -282.5l-102 -556q-20 -104 -21 -180q0 -195 205 -284l-29 -154q-323 98 -323 432z" />
<glyph unicode="\" horiz-adv-x="1239" d="M391 1513h148l350 -1513h-146z" />
<glyph unicode="]" horiz-adv-x="718" d="M-33 -256l29 154q154 55 236.5 160.5t115.5 281.5l103 557q20 104 20 180q0 197 -205 283l29 153q150 -45 236.5 -153.5t86.5 -251.5q0 -88 -18 -186l-113 -609q-41 -217 -175 -364.5t-345 -204.5z" />
<glyph unicode="^" horiz-adv-x="1241" d="M43 369l711 1144h172l284 -1144h-166l-233 977l-598 -977h-170z" />
<glyph unicode="_" horiz-adv-x="1024" d="M-109 -256l23 119h1024l-23 -119h-1024z" />
<glyph unicode="`" horiz-adv-x="768" d="M281 1450l94 119l350 -238l-92 -114z" />
<glyph unicode="a" horiz-adv-x="1398" d="M119 442q0 285 211 495t497 210q285 0 400 -225l37 198h151l-207 -1120h-151l37 197q-125 -127 -227.5 -175.5t-245.5 -48.5q-225 0 -363.5 129t-138.5 340zM276 481q0 -164 103.5 -266t271.5 -102q205 0 361.5 163.5t156.5 376.5q0 154 -101 254.5t-255 100.5 q-213 0 -375 -159t-162 -368z" />
<glyph unicode="b" horiz-adv-x="1396" d="M68 0l280 1513h152l-109 -585q88 104 214 161.5t265 57.5q215 0 354.5 -133t139.5 -338q0 -285 -213 -494t-500 -209q-137 0 -240.5 57.5t-156.5 162.5l-35 -193h-151zM303 485q0 -160 104.5 -266t266.5 -106q213 0 372.5 161.5t159.5 376.5q0 160 -100 258.5t-264 98.5 q-211 0 -375 -161t-164 -362z" />
<glyph unicode="c" horiz-adv-x="1325" d="M119 455q0 272 217 482t500 210q193 0 324.5 -98.5t168.5 -268.5h-170q-41 109 -132 168.5t-216 59.5q-213 0 -374 -160t-161 -371q0 -160 105.5 -262t269.5 -102q125 0 210 43t216 174h170q-143 -195 -289.5 -276t-324.5 -81q-229 0 -371.5 133.5t-142.5 348.5z" />
<glyph unicode="d" horiz-adv-x="1402" d="M119 444q0 281 215 492t502 211q260 0 399 -205l106 571h152l-281 -1513h-151l37 203q-109 -123 -218.5 -176.5t-254.5 -53.5q-219 0 -362.5 133t-143.5 338zM276 483q0 -166 104.5 -268t274.5 -102q203 0 364 164.5t161 373.5q0 154 -107.5 255.5t-269.5 101.5 q-207 0 -367 -160t-160 -365z" />
<glyph unicode="e" horiz-adv-x="1331" d="M119 451q0 276 210 486t486 210q213 0 349 -131t136 -336q0 -66 -18 -170h-1014q-4 -49 -4 -57q0 -143 106.5 -241.5t260.5 -98.5q125 0 249 71.5t189 184.5h158q-98 -180 -267 -288t-356 -108q-209 0 -347 136.5t-138 341.5zM299 647h858q-8 166 -107.5 263.5 t-261.5 97.5q-160 0 -297 -101.5t-192 -259.5z" />
<glyph unicode="f" horiz-adv-x="643" d="M145 0l183 983h-174l24 137h174q41 203 166 298t301 95h35l-25 -137h-30q-131 0 -201 -60.5t-94 -195.5h276l-24 -137h-277l-182 -983h-152z" />
<glyph unicode="g" horiz-adv-x="1378" d="M61 -35h148q68 -158 143.5 -212t218.5 -54q199 0 325 114.5t167 338.5l14 75q-166 -254 -473 -254q-213 0 -350 133.5t-137 342.5q0 276 211 487t483 211q137 0 224 -46t171 -179l37 198h152l-172 -919q-35 -180 -72 -270.5t-113 -170.5q-188 -201 -495 -200 q-203 0 -325 96t-157 309zM274 483q0 -160 92.5 -265t262.5 -105q205 0 363.5 164.5t158.5 388.5q0 147 -103.5 244.5t-259.5 97.5q-197 0 -355.5 -156t-158.5 -369z" />
<glyph unicode="h" horiz-adv-x="1249" d="M68 0l280 1513h152l-101 -538q156 172 379 172q193 0 300.5 -99.5t107.5 -277.5q0 -53 -21 -168l-110 -602h-152l111 602q14 90 14 148q0 113 -80 185.5t-205 72.5q-156 0 -264 -101.5t-145 -292.5l-115 -614h-151z" />
<glyph unicode="i" horiz-adv-x="409" d="M68 0l206 1120h152l-207 -1120h-151zM299 1243l47 258h152l-47 -258h-152z" />
<glyph unicode="j" horiz-adv-x="415" d="M-227 -393l26 145q131 8 193.5 79t97.5 247l193 1042h151l-192 -1042q-72 -451 -469 -471zM307 1243l47 258h152l-47 -258h-152z" />
<glyph unicode="k" horiz-adv-x="1028" d="M68 0l280 1513h152l-199 -1073l647 680h187l-541 -563l362 -557h-188l-289 449l-217 -218l-43 -231h-151z" />
<glyph unicode="l" horiz-adv-x="409" d="M68 0l280 1513h152l-281 -1513h-151z" />
<glyph unicode="m" horiz-adv-x="1921" d="M68 0l206 1120h152l-23 -129q96 96 166 126t174 30q262 0 326 -215q100 115 198.5 165t229.5 50q166 0 267.5 -89t101.5 -235q0 -63 -17 -157l-123 -666h-151l121 649q12 74 12 127q0 106 -64.5 169t-177.5 63q-141 0 -239.5 -89.5t-132.5 -269.5l-121 -649h-152l121 653 q12 63 12 109q0 121 -69.5 183.5t-177.5 62.5q-139 0 -237.5 -95.5t-129.5 -259.5l-121 -653h-151z" />
<glyph unicode="n" horiz-adv-x="1249" d="M68 0l206 1120h152l-27 -145q178 172 385 172q184 0 293 -100.5t109 -270.5q0 -72 -23 -188l-108 -588h-152l109 588q16 92 16 151q0 123 -77 196t-208 73q-156 0 -264 -96.5t-145 -295.5l-115 -616h-151z" />
<glyph unicode="o" horiz-adv-x="1341" d="M117 440q0 289 215 498t497 209q213 0 346.5 -129t133.5 -338q0 -287 -209 -497t-479 -210q-223 0 -363.5 130t-140.5 337zM274 467q0 -158 101.5 -256t265.5 -98q213 0 361.5 160.5t148.5 392.5q0 150 -98.5 246t-249.5 96q-215 0 -372 -161t-157 -380z" />
<glyph unicode="p" horiz-adv-x="1396" d="M-6 -393l280 1513h152l-35 -192q76 100 205 159.5t274 59.5q221 0 356.5 -133t135.5 -348q0 -272 -214 -482.5t-493 -210.5q-287 0 -401 220l-109 -586h-151zM301 465q0 -152 104.5 -252t260.5 -100q207 0 372.5 156.5t165.5 379.5q0 156 -103.5 257.5t-262.5 101.5 q-203 0 -370 -157t-167 -386z" />
<glyph unicode="q" horiz-adv-x="1396" d="M117 444q0 281 212 492t494 211q297 0 404 -219l35 192h151l-280 -1513h-152l109 586q-186 -219 -486 -220q-213 0 -350 133t-137 338zM274 469q0 -156 101.5 -256t259.5 -100q215 0 379 159.5t164 378.5q0 154 -105.5 255.5t-267.5 101.5q-211 0 -371 -162t-160 -377z " />
<glyph unicode="r" horiz-adv-x="616" d="M68 0l206 1120h152l-29 -159q61 92 142.5 135t210.5 51l-29 -150q-324 -35 -381 -344l-121 -653h-151z" />
<glyph unicode="s" horiz-adv-x="794" d="M27 240q0 41 6 90h149q0 -127 42 -172t128 -45q94 0 163 68.5t69 160.5q0 63 -33 97t-148 83q-92 41 -127.5 61.5t-58.5 47.5q-53 59 -53 147q0 147 117.5 258t267.5 111q113 0 186.5 -68.5t73.5 -173.5q0 -39 -2 -61h-154q0 164 -133 164q-76 0 -137 -58.5t-61 -130.5 q0 -78 77 -121q35 -18 195 -90q147 -66 147 -221q0 -170 -124.5 -292t-290.5 -122q-135 0 -217 78t-82 189z" />
<glyph unicode="t" horiz-adv-x="694" d="M145 983l25 137h229l74 393h152l-74 -393h264l-24 -137h-265l-182 -983h-151l182 983h-230z" />
<glyph unicode="u" horiz-adv-x="1245" d="M141 317q0 96 19 199l112 604h152l-113 -604q-12 -53 -12 -137q0 -127 69.5 -196.5t204.5 -69.5q158 0 271.5 103t156.5 329l109 575h152l-209 -1120h-152l33 174q-82 -109 -175 -155t-227 -46q-178 0 -284.5 93t-106.5 251z" />
<glyph unicode="v" d="M162 1120h153l220 -942l575 942h154l-678 -1120h-160z" />
<glyph unicode="w" horiz-adv-x="1701" d="M160 1120h151l183 -938l413 801h125l115 -801l539 938h147l-641 -1120h-162l-106 743l-379 -743h-164z" />
<glyph unicode="x" horiz-adv-x="983" d="M-45 0l496 571l-289 549h172l223 -432l381 432h174l-491 -549l284 -571h-174l-217 449l-387 -449h-172z" />
<glyph unicode="y" horiz-adv-x="1097" d="M137 -393l260 430l-233 1083h166l188 -893l545 893h162l-928 -1513h-160z" />
<glyph unicode="z" horiz-adv-x="870" d="M-41 0l25 137l776 846h-598l24 137h770l-22 -129l-772 -854h651l-25 -137h-829z" />
<glyph unicode="{" horiz-adv-x="718" d="M131 557l27 141q96 16 134 53t52 132l66 348q47 182 113.5 230t250.5 52l-26 -137q-100 -8 -129 -31.5t-52 -113.5l-65 -348q-25 -119 -70 -169t-160 -87q84 -29 114 -65t30 -109l-6 -78l-66 -348q-6 -31 -6 -64q0 -43 22.5 -59.5t90.5 -22.5l20 -2l-27 -137 q-150 4 -190 29q-76 45 -76 145q0 66 8 111l66 348l6 65q0 57 -23.5 79t-103.5 38z" />
<glyph unicode="|" horiz-adv-x="1376" d="M659 -256v1769h152v-1769h-152z" />
<glyph unicode="}" horiz-adv-x="718" d="M-33 -258l25 137q100 8 127.5 29.5t54.5 118.5l64 348q16 106 67 162.5t160 89.5q-92 41 -117.5 70.5t-25.5 90.5q0 47 10 95l65 348q2 8 2 63q0 43 -20.5 58.5t-85.5 21.5l-23 2l25 137q150 -4 190 -28q78 -47 78 -158q0 -31 -10 -96l-66 -348l-8 -84q0 -43 28 -64.5 t99 -36.5l-26 -141q-100 -18 -130 -47t-57 -135l-63 -348q-31 -166 -109 -225.5t-254 -59.5z" />
<glyph unicode="~" horiz-adv-x="1241" d="M141 526q98 133 176 189.5t164 56.5q59 0 150 -39l123 -55q102 -47 153 -45q96 0 228 166l71 -97q-72 -104 -162 -166.5t-170 -62.5q-57 0 -178 53l-102 45q-96 41 -141 41q-63 0 -108.5 -33.5t-135.5 -148.5z" />
<glyph unicode="&#xa1;" horiz-adv-x="604" d="M90 -393l205 1110h151l-204 -1110h-152zM324 862l47 258h151l-47 -258h-151z" />
<glyph unicode="&#xa2;" d="M170 692q0 205 149.5 370t382.5 195l35 191h137l-34 -191q131 -23 214 -102.5t103 -206.5h-168l-12 25q-72 147 -252 147q-158 0 -277.5 -119.5t-119.5 -277.5q0 -125 75.5 -202t198.5 -77q170 0 313 150h164q-57 -111 -171.5 -188.5t-243.5 -96.5l-33 -182h-137l32 182 q-158 14 -257 120.5t-99 262.5z" />
<glyph unicode="&#xa3;" d="M57 0l25 137h283q61 57 98 141t37 173q0 63 -32 121.5t-110 138.5h-254l27 137h156q-25 82 -25 137q0 227 181.5 391t404.5 164q190 0 311 -109.5t121 -265.5q0 -8 -4 -57h-143q0 133 -84 213t-226 80q-166 0 -284.5 -125t-118.5 -301q0 -49 31 -127h579l-26 -137h-443 q96 -131 96 -262q0 -139 -114 -312h116q209 0 318.5 110.5t109.5 301.5h148q0 -258 -162 -403.5t-432 -145.5h-584z" />
<glyph unicode="&#xa4;" d="M43 227l104 86q-47 80 -47 199q0 225 160 414l-72 88l131 110l72 -86q111 57 176.5 77t147.5 20q178 0 291 -97l104 86l88 -110l-100 -88q49 -113 49 -205q0 -113 -44 -224.5t-118 -183.5l70 -86l-131 -108l-68 86q-180 -102 -334 -103q-86 0 -149.5 22.5t-134.5 80.5 l-105 -86zM248 553q0 -137 84 -219t225 -82q178 0 310 132t132 312q0 137 -86 213t-215 76q-182 0 -316 -132t-134 -300z" />
<glyph unicode="&#xa5;" d="M137 485l25 138h373l-66 188h-287l27 137h213l-199 565h156l297 -843l594 843h155l-399 -565h209l-27 -137h-282l-135 -188h368l-24 -138h-420l-90 -485h-152l90 485h-426z" />
<glyph unicode="&#xa6;" horiz-adv-x="1376" d="M659 -256v709h152v-709h-152zM659 805v708h152v-708h-152z" />
<glyph unicode="&#xa7;" horiz-adv-x="1259" d="M172 45q0 33 6 86h139q-2 -18 -2 -51q0 -102 67 -166t173 -64q113 0 201 79t88 177q0 88 -160 175l-266 143q-96 53 -138 101t-42 110q0 109 64.5 208t176.5 163q-49 57 -49 143q0 156 126 273.5t296 117.5q127 0 217 -72.5t90 -175.5q0 -6 -4 -51h-145q-6 160 -191 160 q-100 0 -173 -66.5t-73 -156.5q0 -96 93 -144l292 -151q174 -90 175 -238q0 -190 -213 -346q63 -78 63 -156q0 -188 -141.5 -310t-317.5 -122q-156 0 -254 97.5t-98 236.5zM385 682q0 -29 23.5 -60.5t60.5 -52.5l371 -196q145 96 145 241q0 86 -92 134l-350 182 q-68 -43 -113 -114t-45 -134z" />
<glyph unicode="&#xa8;" horiz-adv-x="755" d="M317 1243l48 258h151l-47 -258h-152zM618 1243l48 258h151l-47 -258h-152z" />
<glyph unicode="&#xa9;" horiz-adv-x="1529" d="M90 698q0 299 212 512t511 213t512 -213t213 -512t-213 -511t-512 -212t-511 212t-212 511zM166 698.5q0 -268.5 189.5 -458t457.5 -189.5t458.5 189.5t190.5 458t-190.5 459t-458.5 190.5t-457.5 -190.5t-189.5 -459zM334 606q-4 215 167 374t406 159q152 0 259.5 -73 t123.5 -185h-125q-74 152 -276 151q-174 0 -305 -118.5t-129 -276.5q2 -119 90 -195.5t223 -76.5q184 0 336 153h127q-80 -123 -207 -191.5t-274 -68.5q-182 0 -297 97t-119 251z" />
<glyph unicode="&#xaa;" horiz-adv-x="755" d="M125 653l18 107h652l-19 -107h-651zM236 1165q0 139 117.5 250t267.5 111q109 0 180 -105l16 92h98l-110 -595h-98l16 92q-100 -106 -234 -107q-106 0 -179.5 75.5t-73.5 186.5zM344 1178q0 -72 49 -123t119 -51q90 0 168 77.5t78 167.5q0 74 -46 125t-116 51 q-96 0 -174 -76.5t-78 -170.5z" />
<glyph unicode="&#xab;" horiz-adv-x="870" d="M135 614l305 408l109 -66l-254 -342l127 -344l-133 -67zM492 614l305 408l108 -66l-254 -342l127 -344l-133 -67z" />
<glyph unicode="&#xac;" horiz-adv-x="1241" d="M176 625v151h983v-452h-151v301h-832z" />
<glyph unicode="&#xad;" horiz-adv-x="679" d="M102 477l25 129h557l-25 -129h-557z" />
<glyph unicode="&#xae;" horiz-adv-x="1529" d="M90 698q0 299 212 512t511 213t512 -213t213 -512t-213 -511t-512 -212t-511 212t-212 511zM166 698.5q0 -268.5 189.5 -458t457.5 -189.5t458.5 189.5t190.5 458t-190.5 459t-458.5 190.5t-457.5 -190.5t-189.5 -459zM440 272l158 852h238q188 0 268 -52t84 -167 q2 -127 -82 -216t-221 -107l198 -310h-149l-254 404q197 -2 270 26q53 20 86 71.5t31 111.5q-2 74 -60.5 103.5t-197.5 29.5h-115l-137 -746h-117z" />
<glyph unicode="&#xaf;" horiz-adv-x="993" d="M332 1309l24 127h691l-25 -127h-690z" />
<glyph unicode="&#xb0;" horiz-adv-x="819" d="M260 1090q0 127 92 216t226 89q127 0 217 -91.5t90 -216.5q0 -127 -91.5 -217t-222.5 -90q-129 0 -220 90.5t-91 219.5zM377 1090q0 -80 57.5 -136.5t136.5 -56.5q82 0 139.5 56.5t57.5 134t-57.5 134t-135.5 56.5q-82 0 -140 -55t-58 -133z" />
<glyph unicode="&#xb1;" horiz-adv-x="1241" d="M176 0v152h983v-152h-983zM176 588v151h416v416h151v-416h416v-151h-416v-299h-151v299h-416z" />
<glyph unicode="&#xb2;" horiz-adv-x="679" d="M76 608l18 101l391 299q156 119 191 164t35 116q0 59 -46.5 97t-119.5 38q-193 0 -234 -219h-116q23 152 124 239t250 87q117 0 188.5 -63.5t71.5 -168.5q0 -88 -52 -161.5t-183 -173.5l-330 -248h457l-19 -107h-626z" />
<glyph unicode="&#xb3;" horiz-adv-x="679" d="M125 823q0 37 6 84h117l-2 -71q-2 -55 47 -96.5t117 -41.5q92 0 163.5 64.5t71.5 146.5q0 162 -227 162h-19l21 103h49q84 0 138.5 40.5t54.5 104.5q0 49 -31 76.5t-84 27.5q-143 0 -168 -153h-117q16 113 101.5 186.5t199.5 73.5q100 0 158.5 -52.5t58.5 -140.5 q0 -66 -35.5 -123t-95.5 -88q115 -59 115 -192t-112.5 -237.5t-258.5 -104.5q-121 0 -194.5 65.5t-73.5 165.5z" />
<glyph unicode="&#xb4;" horiz-adv-x="768" d="M414 1331l438 238l49 -119l-438 -233z" />
<glyph unicode="&#xb5;" horiz-adv-x="1245" d="M-6 -393l280 1513h152l-107 -575q-14 -78 -14 -139q0 -293 305 -293q150 0 248 96t143 336l109 575h152l-209 -1120h-152l33 174q-70 -109 -148.5 -155t-193.5 -46q-229 0 -338 220l-109 -586h-151z" />
<glyph unicode="&#xb6;" horiz-adv-x="1155" d="M215 1044q0 197 143.5 333t393.5 136h473l-330 -1785h-152l306 1648h-238l-305 -1648h-152l185 999q-154 16 -239 98t-85 219z" />
<glyph unicode="&#xb7;" horiz-adv-x="567" d="M203 512q0 53 38 91t91 38t91 -38t38 -91t-38 -91t-91 -38t-91 38t-38 91z" />
<glyph unicode="&#xb8;" horiz-adv-x="663" d="M39 -340l111 12q4 -37 21 -52t56 -15q49 0 84 38t35 93q2 39 -20.5 60.5t-61.5 21.5q-59 0 -104 -39l-58 39l113 192h80l-55 -108l26 4q29 6 43 6q76 0 123 -42t47 -112q0 -14 -4 -39q-16 -98 -93 -165.5t-179 -67.5q-150 0 -164 174z" />
<glyph unicode="&#xb9;" horiz-adv-x="679" d="M403 1407l19 106h274l-166 -905h-118l147 799h-156z" />
<glyph unicode="&#xba;" horiz-adv-x="755" d="M127 653l18 107h625l-18 -107h-625zM227 1161q0 143 115 254t264 111q109 0 181.5 -74t72.5 -184q0 -141 -115.5 -252t-265.5 -111q-106 0 -179 73.5t-73 182.5zM336 1171q0 -72 48 -118.5t120 -46.5q100 0 174 76.5t74 181.5q0 66 -48.5 113.5t-115.5 47.5 q-102 0 -177 -76t-75 -178z" />
<glyph unicode="&#xbb;" horiz-adv-x="870" d="M72 270l254 344l-127 342l133 66l153 -408l-305 -411zM428 270l254 344l-127 342l133 66l154 -408l-305 -411z" />
<glyph unicode="&#xbc;" horiz-adv-x="1701" d="M383 0l981 1513h111l-981 -1513h-111zM418 1407l18 106h275l-166 -905h-119l147 799h-155zM930 162l18 98l584 645h129l-119 -637h86l-18 -106h-86l-31 -162h-119l31 162h-475zM1094 268h329l88 465z" />
<glyph unicode="&#xbd;" horiz-adv-x="1701" d="M362 0l981 1513h111l-981 -1513h-111zM397 1407l19 106h274l-166 -905h-118l147 799h-156zM975 0l18 100l391 299q156 119 191 164t35 117q0 59 -46 97t-120 38q-193 0 -234 -219h-116q23 152 124 239t250 87q117 0 189 -63.5t72 -168.5q0 -88 -52.5 -161.5 t-183.5 -174.5l-330 -248h457l-18 -106h-627z" />
<glyph unicode="&#xbe;" horiz-adv-x="1701" d="M125 823q0 37 6 84h117l-2 -71q-2 -55 47 -96.5t117 -41.5q92 0 163.5 64.5t71.5 146.5q0 162 -227 162h-19l21 103h49q84 0 138.5 40.5t54.5 104.5q0 49 -31 76.5t-84 27.5q-143 0 -168 -153h-117q16 113 101.5 186.5t199.5 73.5q100 0 158.5 -52.5t58.5 -140.5 q0 -66 -35.5 -123t-95.5 -88q115 -59 115 -192t-112.5 -237.5t-258.5 -104.5q-121 0 -194.5 65.5t-73.5 165.5zM403 0l981 1513h111l-981 -1513h-111zM930 162l18 98l584 645h129l-119 -637h86l-18 -106h-86l-31 -162h-119l31 162h-475zM1094 268h329l88 465z" />
<glyph unicode="&#xbf;" horiz-adv-x="1210" d="M72 -61q0 131 51 221t207 213q133 106 193.5 186t76.5 166h143q-18 -209 -284 -418q-135 -106 -174 -166q-55 -80 -56 -182q0 -106 72 -173t186 -67q303 0 400 361h143q-53 -242 -206.5 -371t-364.5 -129q-176 0 -281.5 98.5t-105.5 260.5zM623 862l47 258h151l-47 -258 h-151z" />
<glyph unicode="&#xc0;" horiz-adv-x="1515" d="M-39 0l930 1513h170l371 -1513h-166l-125 510h-705l-315 -510h-160zM520 647h588l-164 694zM723 1823l94 119l350 -238l-92 -115z" />
<glyph unicode="&#xc1;" horiz-adv-x="1515" d="M-39 0l930 1513h170l371 -1513h-166l-125 510h-705l-315 -510h-160zM520 647h588l-164 694zM854 1704l438 238l49 -119l-438 -234z" />
<glyph unicode="&#xc2;" horiz-adv-x="1515" d="M-39 0l930 1513h170l371 -1513h-166l-125 510h-705l-315 -510h-160zM520 647h588l-164 694zM633 1616l344 258h135l246 -258h-182l-148 151l-209 -151h-186z" />
<glyph unicode="&#xc3;" horiz-adv-x="1515" d="M-39 0l930 1513h170l371 -1513h-166l-125 510h-705l-315 -510h-160zM520 647h588l-164 694zM721 1743q100 104 182 104q29 0 113 -37.5t102 -37.5q74 0 146 77l43 -94q-82 -113 -189 -113q-55 0 -196 68q-14 8 -35 8q-18 0 -37 -11t-82 -56z" />
<glyph unicode="&#xc4;" horiz-adv-x="1515" d="M-39 0l930 1513h170l371 -1513h-166l-125 510h-705l-315 -510h-160zM520 647h588l-164 694zM766 1616l47 258h152l-47 -258h-152zM1067 1616l47 258h152l-47 -258h-152z" />
<glyph unicode="&#xc5;" horiz-adv-x="1515" d="M-39 0l930 1513h170l371 -1513h-166l-125 510h-705l-315 -510h-160zM520 647h588l-164 694zM811 1726q0 102 72.5 177t173.5 75q80 0 128 -49t48 -129q0 -90 -78 -162.5t-172 -72.5q-74 0 -123 45.5t-49 115.5zM897 1749q0 -41 28.5 -67.5t73.5 -26.5q53 0 100.5 43 t47.5 92q0 41 -31 69.5t-74 28.5q-55 0 -100 -43t-45 -96z" />
<glyph unicode="&#xc6;" horiz-adv-x="2031" d="M-39 0l1327 1513h848l-25 -137h-653l-102 -542h631l-25 -138h-631l-104 -559h653l-25 -137h-804l94 512h-555l-449 -512h-180zM713 649h458l123 670z" />
<glyph unicode="&#xc7;" horiz-adv-x="1665" d="M156 594q0 252 129 470t348 347t471 129q233 0 404 -116.5t210 -303.5h-168q-125 281 -467 281q-197 0 -375 -105.5t-286.5 -283.5t-108.5 -377q0 -227 151.5 -374.5t383.5 -147.5q315 0 575 284h168q-135 -201 -334.5 -311.5t-427.5 -112.5l-36 -71l26 4q29 6 43 6 q76 0 123 -42t47 -112q0 -14 -4 -39q-16 -98 -93 -165.5t-179 -67.5q-150 0 -164 174l110 12q4 -37 21.5 -52t56.5 -15q49 0 84 38t35 93q2 39 -20.5 60.5t-61.5 21.5q-59 0 -104 -39l-58 39l93 159q-266 23 -429 192t-163 425z" />
<glyph unicode="&#xc8;" horiz-adv-x="1097" d="M94 0l281 1513h827l-24 -137h-676l-103 -542h654l-25 -138h-653l-105 -559h676l-24 -137h-828zM535 1823l94 119l350 -238l-92 -115z" />
<glyph unicode="&#xc9;" horiz-adv-x="1097" d="M94 0l281 1513h827l-24 -137h-676l-103 -542h654l-25 -138h-653l-105 -559h676l-24 -137h-828zM668 1704l438 238l49 -119l-438 -234z" />
<glyph unicode="&#xca;" horiz-adv-x="1097" d="M94 0l281 1513h827l-24 -137h-676l-103 -542h654l-25 -138h-653l-105 -559h676l-24 -137h-828zM446 1616l345 258h135l245 -258h-182l-147 151l-209 -151h-187z" />
<glyph unicode="&#xcb;" horiz-adv-x="1097" d="M94 0l281 1513h827l-24 -137h-676l-103 -542h654l-25 -138h-653l-105 -559h676l-24 -137h-828zM578 1616l47 258h151l-47 -258h-151zM879 1616l47 258h151l-47 -258h-151z" />
<glyph unicode="&#xcc;" horiz-adv-x="462" d="M94 0l281 1513h151l-280 -1513h-152zM188 1823l95 119l350 -238l-92 -115z" />
<glyph unicode="&#xcd;" horiz-adv-x="462" d="M94 0l281 1513h151l-280 -1513h-152zM338 1704l438 238l49 -119l-438 -234z" />
<glyph unicode="&#xce;" horiz-adv-x="462" d="M94 0l281 1513h151l-280 -1513h-152zM109 1616l344 258h135l246 -258h-183l-147 151l-209 -151h-186z" />
<glyph unicode="&#xcf;" horiz-adv-x="462" d="M94 0l281 1513h151l-280 -1513h-152zM240 1616l47 258h151l-47 -258h-151zM541 1616l47 258h151l-47 -258h-151z" />
<glyph unicode="&#xd0;" horiz-adv-x="1617" d="M129 711l25 137h190l125 665h356q205 0 332 -27.5t219 -90.5q242 -168 242 -471q0 -442 -338 -715q-139 -111 -299 -160t-385 -49h-408l131 711h-190zM367 137h211q236 0 383 46t264 155q109 100 172 249.5t63 303.5q0 238 -150.5 361.5t-502.5 123.5h-211l-100 -528h422 l-25 -137h-422z" />
<glyph unicode="&#xd1;" horiz-adv-x="1515" d="M94 0l281 1513h205l614 -1255l233 1255h152l-281 -1513h-151l-655 1331l-246 -1331h-152zM721 1743q100 104 182 104q29 0 113 -37.5t102 -37.5q74 0 146 77l43 -94q-82 -113 -189 -113q-55 0 -196 68q-14 8 -35 8q-18 0 -37 -11t-82 -56z" />
<glyph unicode="&#xd2;" horiz-adv-x="1779" d="M156 618q0 236 136 450t360.5 343t469.5 129q272 0 466 -183t194 -464q0 -233 -136.5 -447.5t-360.5 -343.5t-470 -129q-276 0 -467.5 184.5t-191.5 460.5zM313 647q0 -225 152.5 -379.5t374.5 -154.5q305 0 544.5 230t239.5 521q0 233 -151.5 385t-387.5 152 q-293 0 -532.5 -233.5t-239.5 -520.5zM864 1823l94 119l351 -238l-92 -115z" />
<glyph unicode="&#xd3;" horiz-adv-x="1779" d="M156 618q0 236 136 450t360.5 343t469.5 129q272 0 466 -183t194 -464q0 -233 -136.5 -447.5t-360.5 -343.5t-470 -129q-276 0 -467.5 184.5t-191.5 460.5zM313 647q0 -225 152.5 -379.5t374.5 -154.5q305 0 544.5 230t239.5 521q0 233 -151.5 385t-387.5 152 q-293 0 -532.5 -233.5t-239.5 -520.5zM995 1704l439 238l49 -119l-439 -234z" />
<glyph unicode="&#xd4;" horiz-adv-x="1779" d="M156 618q0 236 136 450t360.5 343t469.5 129q272 0 466 -183t194 -464q0 -233 -136.5 -447.5t-360.5 -343.5t-470 -129q-276 0 -467.5 184.5t-191.5 460.5zM313 647q0 -225 152.5 -379.5t374.5 -154.5q305 0 544.5 230t239.5 521q0 233 -151.5 385t-387.5 152 q-293 0 -532.5 -233.5t-239.5 -520.5zM774 1616l344 258h135l246 -258h-182l-148 151l-208 -151h-187z" />
<glyph unicode="&#xd5;" horiz-adv-x="1779" d="M156 618q0 236 136 450t360.5 343t469.5 129q272 0 466 -183t194 -464q0 -233 -136.5 -447.5t-360.5 -343.5t-470 -129q-276 0 -467.5 184.5t-191.5 460.5zM313 647q0 -225 152.5 -379.5t374.5 -154.5q305 0 544.5 230t239.5 521q0 233 -151.5 385t-387.5 152 q-293 0 -532.5 -233.5t-239.5 -520.5zM862 1743q100 104 182 104q29 0 113 -37.5t103 -37.5q74 0 145 77l43 -94q-82 -113 -188 -113q-55 0 -197 68q-14 8 -35 8q-18 0 -36.5 -11t-82.5 -56z" />
<glyph unicode="&#xd6;" horiz-adv-x="1779" d="M156 618q0 236 136 450t360.5 343t469.5 129q272 0 466 -183t194 -464q0 -233 -136.5 -447.5t-360.5 -343.5t-470 -129q-276 0 -467.5 184.5t-191.5 460.5zM313 647q0 -225 152.5 -379.5t374.5 -154.5q305 0 544.5 230t239.5 521q0 233 -151.5 385t-387.5 152 q-293 0 -532.5 -233.5t-239.5 -520.5zM907 1616l47 258h152l-47 -258h-152zM1208 1616l47 258h152l-47 -258h-152z" />
<glyph unicode="&#xd7;" horiz-adv-x="1241" d="M266 217l295 295l-295 295l107 106l295 -295l295 295l106 -106l-295 -295l295 -295l-106 -106l-295 295l-295 -295z" />
<glyph unicode="&#xd8;" horiz-adv-x="1777" d="M86 -86l240 254q-176 172 -176 434q0 244 134 462t352 347t458 129q238 0 407 -115l240 256l92 -88l-234 -250q176 -172 177 -438q0 -236 -135.5 -452.5t-357.5 -348t-462 -131.5q-104 0 -212.5 31t-182.5 82l-242 -256zM307 633q0 -115 24.5 -184.5t100.5 -165.5 l965 1030q-127 88 -324 88q-301 0 -533.5 -239.5t-232.5 -528.5zM530 199q154 -86 310 -86q299 0 538.5 228t239.5 531q0 109 -22.5 176.5t-88.5 159.5l-14 21z" />
<glyph unicode="&#xd9;" horiz-adv-x="1341" d="M182 354q0 90 23 215l174 944h151l-174 -944q-18 -98 -18 -184q0 -121 82 -196.5t213 -75.5q172 0 287.5 112.5t158.5 343.5l174 944h152l-174 -944q-55 -297 -220 -446.5t-405 -149.5q-188 0 -306 106.5t-118 274.5zM639 1823l94 119l350 -238l-92 -115z" />
<glyph unicode="&#xda;" horiz-adv-x="1341" d="M182 354q0 90 23 215l174 944h151l-174 -944q-18 -98 -18 -184q0 -121 82 -196.5t213 -75.5q172 0 287.5 112.5t158.5 343.5l174 944h152l-174 -944q-55 -297 -220 -446.5t-405 -149.5q-188 0 -306 106.5t-118 274.5zM770 1704l438 238l49 -119l-438 -234z" />
<glyph unicode="&#xdb;" horiz-adv-x="1341" d="M182 354q0 90 23 215l174 944h151l-174 -944q-18 -98 -18 -184q0 -121 82 -196.5t213 -75.5q172 0 287.5 112.5t158.5 343.5l174 944h152l-174 -944q-55 -297 -220 -446.5t-405 -149.5q-188 0 -306 106.5t-118 274.5zM549 1616l344 258h135l246 -258h-182l-148 151 l-209 -151h-186z" />
<glyph unicode="&#xdc;" horiz-adv-x="1341" d="M182 354q0 90 23 215l174 944h151l-174 -944q-18 -98 -18 -184q0 -121 82 -196.5t213 -75.5q172 0 287.5 112.5t158.5 343.5l174 944h152l-174 -944q-55 -297 -220 -446.5t-405 -149.5q-188 0 -306 106.5t-118 274.5zM682 1616l47 258h152l-47 -258h-152zM983 1616 l47 258h152l-47 -258h-152z" />
<glyph unicode="&#xdd;" horiz-adv-x="1212" d="M223 1513h168l273 -847l598 847h165l-714 -1007l-95 -506h-151l94 506zM702 1704l439 238l49 -119l-438 -234z" />
<glyph unicode="&#xde;" horiz-adv-x="1212" d="M94 0l281 1513h151l-55 -301h266q268 0 387 -80.5t119 -261.5q0 -117 -42 -226t-118 -185q-80 -80 -192.5 -114t-298.5 -34h-289l-57 -311h-152zM328 449h280q147 0 232.5 24.5t140.5 83.5q47 51 75.5 129t28.5 156q0 131 -96 188q-74 45 -330 45h-215z" />
<glyph unicode="&#xdf;" d="M59 0l183 985q55 287 184 421t338 134q158 0 256 -93t98 -243q0 -270 -235 -407q213 -74 213 -295q0 -215 -149.5 -372t-356.5 -157q-262 0 -338 250l-41 -223h-152zM289 416h104q-8 -41 -8 -64q0 -106 62.5 -172.5t162.5 -66.5q131 0 229.5 107.5t98.5 250.5 q0 109 -85 170t-239 61q-43 0 -88 -4l27 138h31q162 0 269.5 100t107.5 240q0 102 -61.5 163.5t-162.5 61.5q-139 0 -222 -99.5t-122 -316.5z" />
<glyph unicode="&#xe0;" horiz-adv-x="1398" d="M119 442q0 285 211 495t497 210q285 0 400 -225l37 198h151l-207 -1120h-151l37 197q-125 -127 -227.5 -175.5t-245.5 -48.5q-225 0 -363.5 129t-138.5 340zM276 481q0 -164 103.5 -266t271.5 -102q205 0 361.5 163.5t156.5 376.5q0 154 -101 254.5t-255 100.5 q-213 0 -375 -159t-162 -368zM573 1450l95 119l350 -238l-92 -114z" />
<glyph unicode="&#xe1;" horiz-adv-x="1398" d="M119 442q0 285 211 495t497 210q285 0 400 -225l37 198h151l-207 -1120h-151l37 197q-125 -127 -227.5 -175.5t-245.5 -48.5q-225 0 -363.5 129t-138.5 340zM276 481q0 -164 103.5 -266t271.5 -102q205 0 361.5 163.5t156.5 376.5q0 154 -101 254.5t-255 100.5 q-213 0 -375 -159t-162 -368zM705 1331l438 238l49 -119l-438 -233z" />
<glyph unicode="&#xe2;" horiz-adv-x="1398" d="M119 442q0 285 211 495t497 210q285 0 400 -225l37 198h151l-207 -1120h-151l37 197q-125 -127 -227.5 -175.5t-245.5 -48.5q-225 0 -363.5 129t-138.5 340zM276 481q0 -164 103.5 -266t271.5 -102q205 0 361.5 163.5t156.5 376.5q0 154 -101 254.5t-255 100.5 q-213 0 -375 -159t-162 -368zM481 1243l344 258h136l245 -258h-182l-147 152l-209 -152h-187z" />
<glyph unicode="&#xe3;" horiz-adv-x="1398" d="M119 442q0 285 211 495t497 210q285 0 400 -225l37 198h151l-207 -1120h-151l37 197q-125 -127 -227.5 -175.5t-245.5 -48.5q-225 0 -363.5 129t-138.5 340zM276 481q0 -164 103.5 -266t271.5 -102q205 0 361.5 163.5t156.5 376.5q0 154 -101 254.5t-255 100.5 q-213 0 -375 -159t-162 -368zM567 1370q100 104 183 105q29 0 112.5 -38t102.5 -38q74 0 145 78l43 -95q-82 -113 -188 -112q-55 0 -197 67q-14 8 -35 9q-18 0 -36.5 -11.5t-82.5 -56.5z" />
<glyph unicode="&#xe4;" horiz-adv-x="1398" d="M119 442q0 285 211 495t497 210q285 0 400 -225l37 198h151l-207 -1120h-151l37 197q-125 -127 -227.5 -175.5t-245.5 -48.5q-225 0 -363.5 129t-138.5 340zM276 481q0 -164 103.5 -266t271.5 -102q205 0 361.5 163.5t156.5 376.5q0 154 -101 254.5t-255 100.5 q-213 0 -375 -159t-162 -368zM614 1243l48 258h151l-47 -258h-152zM915 1243l48 258h151l-47 -258h-152z" />
<glyph unicode="&#xe5;" horiz-adv-x="1398" d="M119 442q0 285 211 495t497 210q285 0 400 -225l37 198h151l-207 -1120h-151l37 197q-125 -127 -227.5 -175.5t-245.5 -48.5q-225 0 -363.5 129t-138.5 340zM276 481q0 -164 103.5 -266t271.5 -102q205 0 361.5 163.5t156.5 376.5q0 154 -101 254.5t-255 100.5 q-213 0 -375 -159t-162 -368zM662 1348q0 102 72.5 176.5t172.5 74.5q78 0 126 -49t48 -129q0 -90 -77.5 -162.5t-172.5 -72.5q-74 0 -121.5 46t-47.5 116zM748 1370q0 -41 27.5 -67.5t72.5 -26.5q53 0 101 43t48 92q0 41 -30.5 69.5t-75.5 28.5q-53 0 -98 -43t-45 -96z" />
<glyph unicode="&#xe6;" horiz-adv-x="2369" d="M119 449q0 268 211 483t493 215q295 0 406 -221l37 194h145l-37 -194q215 221 481 221q213 0 348.5 -130t135.5 -335q0 -82 -21 -176h-1013q-2 -20 -2 -45q0 -147 107.5 -247.5t264.5 -100.5q127 0 248 69.5t184 182.5h158q-74 -162 -255 -277t-363 -115q-262 0 -410 215 l-35 -188h-145l35 188q-209 -215 -478 -215q-223 0 -359 131.5t-136 344.5zM276 473q0 -158 102.5 -259t260.5 -101q213 0 375 162.5t162 377.5q0 158 -101.5 256.5t-263.5 98.5q-219 0 -377 -162t-158 -373zM1337 643h861q-2 168 -100.5 266.5t-262.5 98.5 q-166 0 -307.5 -103.5t-190.5 -261.5z" />
<glyph unicode="&#xe7;" horiz-adv-x="1325" d="M119 455q0 272 217 482t500 210q193 0 324.5 -98.5t168.5 -268.5h-170q-41 109 -132 168.5t-216 59.5q-213 0 -374 -160t-161 -371q0 -160 105.5 -262t269.5 -102q125 0 210 43t216 174h170q-139 -190 -283.5 -271.5t-318.5 -85.5l-37 -71l27 4q29 6 43 6q76 0 123 -42 t47 -112q0 -14 -4 -39q-16 -98 -93 -165.5t-180 -67.5q-150 0 -163 174l110 12q4 -37 21.5 -52t56.5 -15q49 0 84 38t35 93q2 39 -20.5 60.5t-61.5 21.5q-59 0 -105 -39l-57 39l92 159q-201 20 -322.5 149.5t-121.5 328.5z" />
<glyph unicode="&#xe8;" horiz-adv-x="1331" d="M119 451q0 276 210 486t486 210q213 0 349 -131t136 -336q0 -66 -18 -170h-1014q-4 -49 -4 -57q0 -143 106.5 -241.5t260.5 -98.5q125 0 249 71.5t189 184.5h158q-98 -180 -267 -288t-356 -108q-209 0 -347 136.5t-138 341.5zM299 647h858q-8 166 -107.5 263.5 t-261.5 97.5q-160 0 -297 -101.5t-192 -259.5zM561 1450l94 119l351 -238l-93 -114z" />
<glyph unicode="&#xe9;" horiz-adv-x="1331" d="M119 451q0 276 210 486t486 210q213 0 349 -131t136 -336q0 -66 -18 -170h-1014q-4 -49 -4 -57q0 -143 106.5 -241.5t260.5 -98.5q125 0 249 71.5t189 184.5h158q-98 -180 -267 -288t-356 -108q-209 0 -347 136.5t-138 341.5zM299 647h858q-8 166 -107.5 263.5 t-261.5 97.5q-160 0 -297 -101.5t-192 -259.5zM692 1331l438 238l50 -119l-439 -233z" />
<glyph unicode="&#xea;" horiz-adv-x="1331" d="M119 451q0 276 210 486t486 210q213 0 349 -131t136 -336q0 -66 -18 -170h-1014q-4 -49 -4 -57q0 -143 106.5 -241.5t260.5 -98.5q125 0 249 71.5t189 184.5h158q-98 -180 -267 -288t-356 -108q-209 0 -347 136.5t-138 341.5zM299 647h858q-8 166 -107.5 263.5 t-261.5 97.5q-160 0 -297 -101.5t-192 -259.5zM469 1243l344 258h135l246 -258h-182l-148 152l-209 -152h-186z" />
<glyph unicode="&#xeb;" horiz-adv-x="1331" d="M119 451q0 276 210 486t486 210q213 0 349 -131t136 -336q0 -66 -18 -170h-1014q-4 -49 -4 -57q0 -143 106.5 -241.5t260.5 -98.5q125 0 249 71.5t189 184.5h158q-98 -180 -267 -288t-356 -108q-209 0 -347 136.5t-138 341.5zM299 647h858q-8 166 -107.5 263.5 t-261.5 97.5q-160 0 -297 -101.5t-192 -259.5zM602 1243l47 258h152l-47 -258h-152zM903 1243l47 258h152l-47 -258h-152z" />
<glyph unicode="&#xec;" horiz-adv-x="409" d="M68 0l206 1120h152l-207 -1120h-151zM92 1450l94 119l351 -238l-93 -114z" />
<glyph unicode="&#xed;" horiz-adv-x="409" d="M68 0l206 1120h152l-207 -1120h-151zM242 1331l438 238l49 -119l-438 -233z" />
<glyph unicode="&#xee;" horiz-adv-x="409" d="M10 1243l344 258h135l246 -258h-182l-147 152l-209 -152h-187zM68 0l206 1120h152l-207 -1120h-151z" />
<glyph unicode="&#xef;" horiz-adv-x="409" d="M68 0l206 1120h152l-207 -1120h-151zM143 1243l47 258h152l-47 -258h-152zM444 1243l48 258h151l-47 -258h-152z" />
<glyph unicode="&#xf0;" horiz-adv-x="1341" d="M117 451q0 274 206.5 482t479.5 208q90 0 186 -35l-151 188l-195 -82l-57 93l176 75l-94 93l112 75q20 -16 119 -112l205 82l59 -93l-190 -75q344 -354 344 -641q0 -305 -204 -520.5t-495 -215.5q-227 0 -364 130.5t-137 347.5zM274 469q0 -162 101.5 -259t269.5 -97 q211 0 362.5 158.5t151.5 381.5q0 158 -97 256.5t-253 98.5q-217 0 -376 -160t-159 -379z" />
<glyph unicode="&#xf1;" horiz-adv-x="1249" d="M68 0l206 1120h152l-27 -145q178 172 385 172q184 0 293 -100.5t109 -270.5q0 -72 -23 -188l-108 -588h-152l109 588q16 92 16 151q0 123 -77 196t-208 73q-156 0 -264 -96.5t-145 -295.5l-115 -616h-151zM514 1370q100 104 182 105q29 0 113 -38t102 -38q74 0 146 78 l43 -95q-82 -113 -189 -112q-55 0 -196 67q-14 8 -35 9q-18 0 -36.5 -11.5t-82.5 -56.5z" />
<glyph unicode="&#xf2;" horiz-adv-x="1341" d="M117 440q0 289 215 498t497 209q213 0 346.5 -129t133.5 -338q0 -287 -209 -497t-479 -210q-223 0 -363.5 130t-140.5 337zM274 467q0 -158 101.5 -256t265.5 -98q213 0 361.5 160.5t148.5 392.5q0 150 -98.5 246t-249.5 96q-215 0 -372 -161t-157 -380zM575 1450l95 119 l350 -238l-92 -114z" />
<glyph unicode="&#xf3;" horiz-adv-x="1341" d="M117 440q0 289 215 498t497 209q213 0 346.5 -129t133.5 -338q0 -287 -209 -497t-479 -210q-223 0 -363.5 130t-140.5 337zM274 467q0 -158 101.5 -256t265.5 -98q213 0 361.5 160.5t148.5 392.5q0 150 -98.5 246t-249.5 96q-215 0 -372 -161t-157 -380zM707 1331 l438 238l49 -119l-438 -233z" />
<glyph unicode="&#xf4;" horiz-adv-x="1341" d="M117 440q0 289 215 498t497 209q213 0 346.5 -129t133.5 -338q0 -287 -209 -497t-479 -210q-223 0 -363.5 130t-140.5 337zM274 467q0 -158 101.5 -256t265.5 -98q213 0 361.5 160.5t148.5 392.5q0 150 -98.5 246t-249.5 96q-215 0 -372 -161t-157 -380zM483 1243 l344 258h136l245 -258h-182l-147 152l-209 -152h-187z" />
<glyph unicode="&#xf5;" horiz-adv-x="1341" d="M117 440q0 289 215 498t497 209q213 0 346.5 -129t133.5 -338q0 -287 -209 -497t-479 -210q-223 0 -363.5 130t-140.5 337zM274 467q0 -158 101.5 -256t265.5 -98q213 0 361.5 160.5t148.5 392.5q0 150 -98.5 246t-249.5 96q-215 0 -372 -161t-157 -380zM569 1370 q100 104 183 105q29 0 112.5 -38t102.5 -38q74 0 145 78l43 -95q-82 -113 -188 -112q-55 0 -197 67q-14 8 -35 9q-18 0 -36.5 -11.5t-82.5 -56.5z" />
<glyph unicode="&#xf6;" horiz-adv-x="1341" d="M117 440q0 289 215 498t497 209q213 0 346.5 -129t133.5 -338q0 -287 -209 -497t-479 -210q-223 0 -363.5 130t-140.5 337zM274 467q0 -158 101.5 -256t265.5 -98q213 0 361.5 160.5t148.5 392.5q0 150 -98.5 246t-249.5 96q-215 0 -372 -161t-157 -380zM616 1243l48 258 h151l-47 -258h-152zM918 1243l47 258h151l-47 -258h-151z" />
<glyph unicode="&#xf7;" horiz-adv-x="1241" d="M176 436v152h983v-152h-983zM539 133q0 53 37.5 91t91 38t91.5 -38t38 -91t-38 -91t-91.5 -38t-91 38t-37.5 91zM539 891q0 53 37.5 91t91 38t91.5 -38t38 -91t-38 -91t-91.5 -38t-91 38t-37.5 91z" />
<glyph unicode="&#xf8;" horiz-adv-x="1337" d="M94 4l127 135q-57 84 -78.5 149.5t-21.5 149.5q0 190 104.5 356.5t265 259.5t328.5 93q170 0 289 -84l143 151l95 -86l-144 -149q106 -113 107 -283q0 -295 -206 -509t-491 -214q-168 0 -297 84l-129 -135zM279 461q0 -113 47 -213l680 710q-92 49 -197 50 q-205 0 -367.5 -168t-162.5 -379zM416 162q82 -33 111.5 -41t84.5 -8q229 0 384 164.5t155 410.5q0 92 -51 184z" />
<glyph unicode="&#xf9;" horiz-adv-x="1245" d="M141 317q0 96 19 199l112 604h152l-113 -604q-12 -53 -12 -137q0 -127 69.5 -196.5t204.5 -69.5q158 0 271.5 103t156.5 329l109 575h152l-209 -1120h-152l33 174q-82 -109 -175 -155t-227 -46q-178 0 -284.5 93t-106.5 251zM518 1450l94 119l351 -238l-93 -114z" />
<glyph unicode="&#xfa;" horiz-adv-x="1245" d="M141 317q0 96 19 199l112 604h152l-113 -604q-12 -53 -12 -137q0 -127 69.5 -196.5t204.5 -69.5q158 0 271.5 103t156.5 329l109 575h152l-209 -1120h-152l33 174q-82 -109 -175 -155t-227 -46q-178 0 -284.5 93t-106.5 251zM649 1331l438 238l50 -119l-439 -233z" />
<glyph unicode="&#xfb;" horiz-adv-x="1245" d="M141 317q0 96 19 199l112 604h152l-113 -604q-12 -53 -12 -137q0 -127 69.5 -196.5t204.5 -69.5q158 0 271.5 103t156.5 329l109 575h152l-209 -1120h-152l33 174q-82 -109 -175 -155t-227 -46q-178 0 -284.5 93t-106.5 251zM426 1243l344 258h135l246 -258h-182 l-148 152l-209 -152h-186z" />
<glyph unicode="&#xfc;" horiz-adv-x="1245" d="M141 317q0 96 19 199l112 604h152l-113 -604q-12 -53 -12 -137q0 -127 69.5 -196.5t204.5 -69.5q158 0 271.5 103t156.5 329l109 575h152l-209 -1120h-152l33 174q-82 -109 -175 -155t-227 -46q-178 0 -284.5 93t-106.5 251zM559 1243l47 258h152l-47 -258h-152z M860 1243l47 258h152l-47 -258h-152z" />
<glyph unicode="&#xfd;" horiz-adv-x="1097" d="M137 -393l260 430l-233 1083h166l188 -893l545 893h162l-928 -1513h-160zM580 1331l438 238l49 -119l-438 -233z" />
<glyph unicode="&#xfe;" horiz-adv-x="1396" d="M-6 -393l354 1906h152l-109 -585q76 100 205 159.5t274 59.5q221 0 356.5 -133t135.5 -348q0 -272 -214 -482.5t-493 -210.5q-287 0 -401 220l-109 -586h-151zM301 465q0 -152 104.5 -252t260.5 -100q207 0 372.5 156.5t165.5 379.5q0 158 -103.5 258.5t-264.5 100.5 q-201 0 -368 -157t-167 -386z" />
<glyph unicode="&#xff;" horiz-adv-x="1097" d="M137 -393l260 430l-233 1083h166l188 -893l545 893h162l-928 -1513h-160zM489 1243l48 258h151l-47 -258h-152zM791 1243l47 258h151l-47 -258h-151z" />
<glyph unicode="&#x152;" horiz-adv-x="2445" d="M156 614q0 373 284.5 649.5t669.5 276.5q211 0 359.5 -85t216.5 -243l57 301h807l-27 -137h-653l-101 -542h631l-24 -138h-631l-105 -559h654l-25 -137h-807l58 309q-262 -336 -676 -336q-311 0 -499.5 175t-188.5 466zM313 641q0 -227 148.5 -377.5t396.5 -150.5 q195 0 371 104.5t283.5 285.5t107.5 390q0 227 -148.5 367.5t-390.5 140.5q-307 0 -537.5 -229.5t-230.5 -530.5z" />
<glyph unicode="&#x153;" horiz-adv-x="2328" d="M119 444q0 193 103.5 357t263 255t329.5 91q162 0 262.5 -64.5t186.5 -234.5q70 115 225.5 207t331.5 92q209 0 344 -127t135 -326q0 -68 -27 -186h-999q-4 -53 -4 -66q0 -133 108.5 -231t268.5 -98q268 0 428 254h153q-74 -160 -243.5 -277t-362.5 -117q-164 0 -290 77 t-173 233q-86 -102 -125 -140.5t-92 -70.5q-162 -98 -324 -99q-219 0 -359 131t-140 340zM276 471q0 -158 99.5 -258t255.5 -100q205 0 360.5 164.5t155.5 377.5q0 158 -98.5 255.5t-255.5 97.5q-207 0 -362 -160t-155 -377zM1300 645h859v6v19q0 143 -103.5 240.5 t-257.5 97.5q-162 0 -291 -93.5t-207 -269.5z" />
<glyph unicode="&#x178;" horiz-adv-x="1212" d="M223 1513h168l273 -847l598 847h165l-714 -1007l-95 -506h-151l94 506zM612 1616l47 258h152l-47 -258h-152zM913 1616l48 258h151l-47 -258h-152z" />
<glyph unicode="&#x2c6;" horiz-adv-x="1028" d="M319 1243l345 258h135l245 -258h-182l-147 152l-209 -152h-187z" />
<glyph unicode="&#x2dc;" horiz-adv-x="899" d="M342 1370q100 104 182 105q29 0 113 -38t102 -38q74 0 146 78l43 -95q-82 -113 -189 -112q-55 0 -196 67q-14 8 -35 9q-18 0 -36.5 -11.5t-82.5 -56.5z" />
<glyph unicode="&#x2000;" horiz-adv-x="989" />
<glyph unicode="&#x2001;" horiz-adv-x="1978" />
<glyph unicode="&#x2002;" horiz-adv-x="989" />
<glyph unicode="&#x2003;" horiz-adv-x="1978" />
<glyph unicode="&#x2004;" horiz-adv-x="659" />
<glyph unicode="&#x2005;" horiz-adv-x="493" />
<glyph unicode="&#x2006;" horiz-adv-x="329" />
<glyph unicode="&#x2007;" horiz-adv-x="329" />
<glyph unicode="&#x2008;" horiz-adv-x="245" />
<glyph unicode="&#x2009;" horiz-adv-x="395" />
<glyph unicode="&#x200a;" horiz-adv-x="108" />
<glyph unicode="&#x2010;" horiz-adv-x="679" d="M102 477l25 129h557l-25 -129h-557z" />
<glyph unicode="&#x2011;" horiz-adv-x="679" d="M102 477l25 129h557l-25 -129h-557z" />
<glyph unicode="&#x2012;" horiz-adv-x="679" d="M102 477l25 129h557l-25 -129h-557z" />
<glyph unicode="&#x2013;" horiz-adv-x="1024" d="M39 477l24 129h1027l-25 -129h-1026z" />
<glyph unicode="&#x2014;" horiz-adv-x="2048" d="M39 477l24 129h2051l-25 -129h-2050z" />
<glyph unicode="&#x2018;" horiz-adv-x="718" d="M420 1513h151l107 -393h-152z" />
<glyph unicode="&#x2019;" horiz-adv-x="718" d="M332 1120l254 393h151l-254 -393h-151z" />
<glyph unicode="&#x201a;" horiz-adv-x="724" d="M96 -137l254 395h150l-254 -395h-150z" />
<glyph unicode="&#x201c;" horiz-adv-x="1028" d="M416 1513h151l107 -393h-152zM719 1513h151l107 -393h-152z" />
<glyph unicode="&#x201d;" horiz-adv-x="991" d="M324 1120l254 393h151l-254 -393h-151zM618 1120l254 393h152l-254 -393h-152z" />
<glyph unicode="&#x201e;" horiz-adv-x="1028" d="M96 -135l254 393h152l-254 -393h-152zM395 -135l254 393h152l-254 -393h-152z" />
<glyph unicode="&#x2022;" horiz-adv-x="1241" d="M289 621q0 156 113.5 268t271.5 112q162 0 273.5 -111.5t111.5 -273t-112.5 -273.5t-276.5 -112q-156 0 -268.5 115t-112.5 275z" />
<glyph unicode="&#x2026;" horiz-adv-x="2048" d="M205 0l47 258h151l-47 -258h-151zM887 0l47 258h151l-47 -258h-151zM1569 0l47 258h151l-47 -258h-151z" />
<glyph unicode="&#x202f;" horiz-adv-x="395" />
<glyph unicode="&#x2039;" horiz-adv-x="514" d="M135 614l305 408l109 -66l-254 -342l127 -344l-133 -67z" />
<glyph unicode="&#x203a;" horiz-adv-x="514" d="M72 270l254 344l-127 342l133 66l153 -408l-305 -411z" />
<glyph unicode="&#x205f;" horiz-adv-x="493" />
<glyph unicode="&#x20ac;" d="M-127 557l72 121h139q8 72 29 141h-193l72 121h153q61 166 113.5 257t126.5 161q188 182 446 182q143 0 236.5 -52t177.5 -202l-88 -137q-70 145 -143.5 200.5t-196.5 55.5q-182 0 -298 -101.5t-222 -363.5h719l-72 -121h-682q-18 -70 -26 -141h620l-72 -121h-561v-55 q0 -190 87 -293t251 -103q117 0 193.5 38t228.5 159l-29 -176q-176 -154 -405 -154q-250 0 -364.5 139.5t-114.5 444.5h-197z" />
<glyph unicode="&#x2122;" horiz-adv-x="2095" d="M438 1407l19 106h563l-19 -106h-221l-141 -756h-123l141 756h-219zM999 651l160 862h170l215 -692l469 692h172l-160 -862h-122l129 697l-471 -697h-99l-211 697l-129 -697h-123z" />
<glyph unicode="&#xe000;" horiz-adv-x="1120" d="M0 1120h1120v-1120h-1120v1120z" />
<glyph unicode="&#xfb01;" horiz-adv-x="997" d="M145 0l183 983h-174l24 137h174q41 203 166 298t301 95h35l-25 -137h-30q-131 0 -201 -60.5t-94 -195.5h276l-24 -137h-277l-182 -983h-152zM655 0l207 1120h152l-207 -1120h-152zM887 1243l47 258h151l-47 -258h-151z" />
<glyph unicode="&#xfb02;" horiz-adv-x="993" d="M145 0l183 983h-174l24 137h174q41 203 166 298t301 95h35l-25 -137h-30q-131 0 -201 -60.5t-94 -195.5h276l-24 -137h-277l-182 -983h-152zM651 0l281 1513h151l-280 -1513h-152z" />
<glyph unicode="&#xfb03;" horiz-adv-x="1499" d="M145 0l183 983h-174l24 137h174q41 203 166 298t301 95h35l-25 -137h-30q-131 0 -201 -60.5t-94 -195.5h354q41 203 166 298t301 95h35l-25 -137h-30q-131 0 -201 -60.5t-94 -195.5h276l-24 -137h-277l-182 -983h-152l183 983h-355l-182 -983h-152zM1157 0l207 1120h152 l-207 -1120h-152zM1386 1243l48 258h151l-47 -258h-152z" />
<glyph unicode="&#xfb04;" horiz-adv-x="1499" d="M145 0l183 983h-174l24 137h174q41 203 166 298t301 95h35l-25 -137h-30q-131 0 -201 -60.5t-94 -195.5h354q41 203 166 298t301 95h35l-25 -137h-30q-131 0 -201 -60.5t-94 -195.5h276l-24 -137h-277l-182 -983h-152l183 983h-355l-182 -983h-152zM1157 0l281 1513h151 l-280 -1513h-152z" />
</font>
</defs>
</svg>
