<?xml version="1.0" standalone="no"?>
<!DOCTYPE svg PUBLIC "-//W3C//DTD SVG 1.1//EN" "http://www.w3.org/Graphics/SVG/1.1/DTD/svg11.dtd" >
<svg xmlns="http://www.w3.org/2000/svg">
<metadata>
This is a custom SVG webfont generated by Font Squirrel.
Copyright   : Copyright URW copyright 1999 by URW Design  Development Cyrillic glyphs added by Valek Filippov copyright 20012002 Vietnamese characters were added by Han The Thanh copyright 2006 2008 for TeX Gyre extensions by B Jackowski and JM Nowacki on behalf of TeX users groups This work is released under the GUST Font License   see httptugorgfontslicensesGUSTFONTLICENSEtxt for details
</metadata>
<defs>
<font id="webfont8cyYtZ3S" horiz-adv-x="1146" >
<font-face units-per-em="2048" ascent="1669" descent="-379" />
<missing-glyph horiz-adv-x="573" />
<glyph unicode=" "  horiz-adv-x="573" />
<glyph unicode="&#x09;" horiz-adv-x="573" />
<glyph unicode="&#xa0;" horiz-adv-x="573" />
<glyph unicode="!" horiz-adv-x="573" d="M86 0l49 262h273l-50 -262h-272zM158 385l209 1128h272l-209 -1128h-272z" />
<glyph unicode="&#x22;" horiz-adv-x="737" d="M285 1051l86 462h155l-86 -462h-155zM557 1051l86 462h156l-86 -462h-156z" />
<glyph unicode="#" d="M96 477l39 205h227l60 182h-195l37 205h223l144 444h186l-143 -444h172l143 444h182l-141 -444h184l-36 -205h-211l-58 -182h181l-39 -205h-209l-154 -477h-186l155 477h-172l-153 -477h-187l154 477h-203zM549 682h174l57 182h-172z" />
<glyph unicode="$" d="M143 424q0 39 11 86h274q-4 -37 -4 -43q0 -55 41 -94t98 -39q86 0 148.5 61.5t62.5 147.5q0 59 -57 104q-35 27 -197 92q-205 82 -205 281q0 158 94.5 292t254.5 169l49 272h260l-49 -272q90 -23 141 -103t51 -172q0 -29 -6 -78h-258q0 59 -27.5 93t-76.5 34 q-63 0 -107.5 -47t-44.5 -112q0 -61 37 -95q27 -23 64.5 -41t176.5 -73q180 -72 181 -256q0 -195 -103.5 -337t-285.5 -200l-50 -270h-260l50 270q-125 33 -194 121t-69 209z" />
<glyph unicode="%" horiz-adv-x="1761" d="M193 1106q0 170 136 302t310 132q131 0 219 -86t88 -215q0 -172 -137 -305t-313 -133q-131 0 -217 87t-86 218zM395 0l905 1513h211l-907 -1513h-209zM414 1151q0 -59 34.5 -95t94.5 -36q70 0 126 55t56 123q0 53 -37 89t-92 36q-68 0 -125 -54.5t-57 -117.5zM963 272 q0 174 135 307.5t311 133.5q131 0 219 -86t88 -215q0 -174 -137 -306.5t-315 -132.5q-127 0 -214 86t-87 213zM1184 315q0 -53 35.5 -87.5t89.5 -34.5q72 0 129 56t57 126q0 49 -38 85t-91 36q-72 0 -127 -54.5t-55 -126.5z" />
<glyph unicode="&#x26;" horiz-adv-x="1392" d="M84 367q0 326 377 520q-51 70 -67.5 110.5t-16.5 96.5q0 176 138 311t319 135q143 0 236 -82t93 -207q0 -143 -65.5 -245.5t-247.5 -208.5l111 -156l190 246h305l-346 -451l217 -289l-227 -174l-172 228q-119 -129 -212 -178.5t-214 -49.5q-184 0 -301 110t-117 284z M358 405.5q0 -73.5 47.5 -117.5t126.5 -44q133 0 244 162l-188 253q-129 -55 -179.5 -117.5t-50.5 -136zM639 1130q0 -59 76 -145l16 8q166 66 166 203q0 37 -29.5 62.5t-74.5 25.5q-61 0 -107.5 -46.5t-46.5 -107.5z" />
<glyph unicode="'" horiz-adv-x="450" d="M285 1051l86 462h155l-86 -462h-155z" />
<glyph unicode="(" horiz-adv-x="778" d="M188 434q0 213 102.5 443.5t270.5 398.5q82 82 163 133t210 104l-55 -294q-197 -139 -303.5 -334t-106.5 -416q0 -139 52 -266t134 -187l-55 -297q-174 59 -293 259t-119 456z" />
<glyph unicode=")" horiz-adv-x="778" d="M-35 -281l55 295q195 137 302.5 336t107.5 420q0 133 -53 261t-135 186l55 296q180 -63 297 -261.5t117 -442.5q0 -344 -205 -648.5t-541 -441.5z" />
<glyph unicode="*" horiz-adv-x="901" d="M299 1178l27 145l200 -47l-75 197l141 40l57 -190l123 158l111 -97l-142 -149l201 -25l-27 -143l-196 45l78 -186l-133 -56l-62 197l-123 -162l-119 86l144 164z" />
<glyph unicode="+" horiz-adv-x="1228" d="M158 371v282h362v363h283v-363h362v-282h-362v-363h-283v363h-362z" />
<glyph unicode="," horiz-adv-x="573" d="M35 -287l24 137q143 18 148 150h-119l49 262h273l-52 -276q-23 -121 -108.5 -197t-192.5 -76h-22z" />
<glyph unicode="-" horiz-adv-x="860" d="M188 469l45 242h568l-45 -242h-568z" />
<glyph unicode="." horiz-adv-x="573" d="M86 0l49 262h275l-50 -262h-274z" />
<glyph unicode="/" horiz-adv-x="942" d="M-57 -262l991 1775h192l-989 -1775h-194z" />
<glyph unicode="0" d="M78 379q0 63 12 127l96 514q45 240 206 380t392 140q197 0 313.5 -102.5t116.5 -276.5q0 -63 -12 -127l-98 -528q-47 -254 -207 -393.5t-383 -139.5q-205 0 -320.5 108t-115.5 298zM356 424q0 -201 199 -201q223 0 276 283l97 514q8 39 8 86q0 88 -51 136t-142 48 q-109 0 -185.5 -72.5t-98.5 -197.5l-94 -506q-9 -39 -9 -90z" />
<glyph unicode="1" d="M442 0l234 1257h-191l47 256h463l-280 -1513h-273z" />
<glyph unicode="2" d="M25 0l45 240l626 510q121 98 175.5 181t54.5 171q0 84 -47.5 136t-124.5 52q-217 0 -293 -299h-268q29 131 57.5 197.5t81.5 130.5q88 106 210 163.5t255 57.5q182 0 295.5 -108.5t113.5 -282.5t-84 -305t-311 -307l-362 -281h595l-47 -256h-972z" />
<glyph unicode="3" d="M47 377q0 29 6 82h275v-15q0 -102 53 -161.5t145 -59.5q119 0 204 94.5t85 204.5q0 90 -64.5 148.5t-185.5 58.5h-47l49 262q135 2 197.5 48t62.5 139q0 53 -27.5 82.5t-74.5 29.5q-119 0 -154 -137h-276q47 182 177 284.5t296 102.5q154 0 247 -90t93 -240 q0 -225 -182 -338q90 -51 130 -117.5t40 -168.5q0 -252 -181.5 -432.5t-435.5 -180.5q-190 0 -311 115t-121 289z" />
<glyph unicode="4" d="M-20 227l40 219l895 1067h230l-193 -1044h160l-45 -242h-160l-43 -227h-272l43 227h-655zM303 469h377l108 586z" />
<glyph unicode="5" d="M41 375q0 27 6 78h272q0 -111 53.5 -170.5t151.5 -59.5q123 0 212 103.5t89 236.5q0 94 -55 151.5t-145 57.5q-115 0 -230 -115l-229 66l289 790h684l-47 -256h-480l-102 -278q123 43 207 43q178 0 283.5 -111.5t105.5 -300.5q0 -250 -187.5 -443.5t-439.5 -193.5 q-184 0 -311 120t-127 282z" />
<glyph unicode="6" d="M66 377q0 268 233 543l506 593h325l-462 -538q63 20 129 20q158 0 248 -104.5t90 -272.5q0 -248 -186.5 -446.5t-444.5 -198.5q-188 0 -313 117t-125 287zM346 428q0 -94 56.5 -149.5t152.5 -55.5q121 0 210 96.5t89 227.5q0 94 -56.5 151.5t-148.5 57.5 q-127 0 -215 -95.5t-88 -232.5z" />
<glyph unicode="7" d="M113 0l794 1257h-600l47 256h889l-47 -256l-778 -1257h-305z" />
<glyph unicode="8" d="M80 389q0 137 75.5 262t213.5 191q-78 106 -78 209q0 190 153.5 339.5t350.5 149.5q147 0 241 -90t94 -231q0 -111 -46 -212.5t-138 -164.5q84 -53 119 -115.5t35 -165.5q0 -231 -181.5 -409.5t-418.5 -178.5q-190 0 -305 114t-115 302zM360 416q0 -88 52.5 -140.5 t136.5 -52.5q106 0 188 86t82 197q0 84 -52 138t-134 54q-106 0 -189.5 -85.5t-83.5 -196.5zM553 1090q0 -53 37 -91t90 -38q74 0 131 59t57 137q0 63 -32.5 98t-92.5 35q-74 0 -132 -61t-58 -139z" />
<glyph unicode="9" d="M160 0l465 539q-72 -25 -129 -25q-152 0 -244 104.5t-92 276.5q0 250 186 447.5t440 197.5q193 0 316 -114.5t123 -290.5q0 -266 -234 -541l-506 -594h-325zM440 961q0 -90 56.5 -148.5t144.5 -58.5q127 0 215 96t88 235q0 92 -57.5 148.5t-149.5 56.5q-127 0 -212 -101 t-85 -228z" />
<glyph unicode=":" horiz-adv-x="573" d="M86 0l49 262h275l-50 -262h-274zM225 766l49 262h275l-49 -262h-275z" />
<glyph unicode=";" horiz-adv-x="573" d="M35 -287l24 137q143 18 148 150h-119l49 262h273l-52 -276q-23 -121 -108.5 -197t-192.5 -76h-22zM225 766l49 262h275l-49 -262h-275z" />
<glyph unicode="&#x3c;" horiz-adv-x="1228" d="M180 401v222l875 692v-361l-559 -442l559 -442v-361z" />
<glyph unicode="=" horiz-adv-x="1228" d="M158 182v283h1007v-283h-1007zM158 559v283h1007v-283h-1007z" />
<glyph unicode="&#x3e;" horiz-adv-x="1228" d="M180 70l559 442l-559 442v361l875 -692v-222l-875 -692v361z" />
<glyph unicode="?" d="M203 1065q51 217 203.5 346t353.5 129q168 0 273.5 -104.5t105.5 -272.5q0 -150 -82 -268q-51 -72 -205 -190q-98 -78 -134 -137.5t-56 -184.5h-273q37 199 101.5 298t240.5 224q127 92 127 213q0 68 -45 110t-117 42q-162 0 -221 -205h-272zM319 0l48 262h272l-47 -262 h-273z" />
<glyph unicode="@" horiz-adv-x="1515" d="M70 602q0 256 130 479.5t351 355.5t473 132q276 0 446 -151.5t170 -428.5q0 -289 -155.5 -481.5t-388.5 -192.5q-168 0 -185 111q-96 -111 -256 -111q-125 0 -198.5 76t-73.5 207q0 236 153.5 410t360.5 174q154 0 217 -119l35 111h199l-183 -605q-8 -33 -8 -51 q0 -33 49 -33q104 0 199.5 154t95.5 336q0 203 -134 323.5t-359 120.5q-326 0 -562.5 -234.5t-236.5 -555.5q0 -223 157.5 -364.5t411.5 -141.5q172 0 332 96l72 -123q-115 -70 -208 -96.5t-220 -26.5q-309 0 -496.5 178.5t-187.5 450.5zM637 672q0 -66 35 -103t98 -37 q98 0 174 86.5t76 196.5q0 66 -32 101.5t-91 35.5q-102 0 -181 -84.5t-79 -195.5z" />
<glyph unicode="A" horiz-adv-x="1515" d="M-47 0l911 1513h221l355 -1513h-310l-90 391h-538l-240 -391h-309zM655 662h324l-78 456z" />
<glyph unicode="B" horiz-adv-x="1187" d="M78 0l280 1513h314q172 0 252 -14t139 -57q119 -88 119 -254q0 -258 -226 -363q106 -45 151.5 -110.5t45.5 -173.5q0 -236 -178 -388.5t-494 -152.5h-403zM408 270h139q319 0 319 224q0 86 -60.5 123.5t-193.5 37.5h-133zM530 930h91q274 0 274 194q0 119 -193 119h-114z " />
<glyph unicode="C" horiz-adv-x="1597" d="M127 621q0 233 132 446t349 343t453 130q233 0 403 -117.5t232 -343.5h-316q-59 102 -144 146.5t-216 44.5q-233 0 -419.5 -179.5t-186.5 -420.5q0 -186 118.5 -306t301.5 -120q111 0 202.5 40t206.5 138h330q-123 -205 -337 -327t-448 -122q-291 0 -476 183.5 t-185 464.5z" />
<glyph unicode="D" horiz-adv-x="1433" d="M78 0l280 1513h347q391 0 564 -147t173 -440q0 -227 -106.5 -440.5t-280.5 -333.5q-117 -82 -261.5 -117t-363.5 -35h-352zM408 268h61q188 0 307 39t205 127q174 180 174 428q0 197 -113.5 290t-396.5 93h-55z" />
<glyph unicode="E" horiz-adv-x="1064" d="M78 0l280 1513h813l-49 -270h-532l-68 -352h510l-49 -270h-510l-65 -351h532l-49 -270h-813z" />
<glyph unicode="F" horiz-adv-x="983" d="M78 0l280 1513h770l-49 -270h-489l-68 -352h467l-49 -270h-467l-115 -621h-280z" />
<glyph unicode="G" horiz-adv-x="1720" d="M125 614q0 238 134 453t356.5 344t468 129t432 -137t221.5 -334h-330q-123 201 -369 201q-256 0 -441 -183.5t-185 -422.5q0 -184 121.5 -302t322.5 -118q147 0 277.5 70.5t214.5 195.5h-627l49 262h987q-20 -205 -157.5 -390t-347.5 -297t-433 -112q-305 0 -499.5 180 t-194.5 461z" />
<glyph unicode="H" horiz-adv-x="1392" d="M78 0l280 1513h281l-113 -608h541l113 608h280l-280 -1513h-281l117 635h-541l-117 -635h-280z" />
<glyph unicode="I" horiz-adv-x="573" d="M78 0l280 1513h281l-281 -1513h-280z" />
<glyph unicode="J" horiz-adv-x="983" d="M16 287q0 14 4 71h281l2 -14q14 -100 113 -100q135 0 172 198l198 1071h281l-201 -1079q-43 -223 -178 -342t-315 -119q-158 0 -257.5 88.5t-99.5 225.5z" />
<glyph unicode="K" horiz-adv-x="1269" d="M78 0l280 1513h281l-121 -653l592 653h336l-705 -743l424 -770h-336l-348 666l-123 -666h-280z" />
<glyph unicode="L" horiz-adv-x="901" d="M78 0l280 1513h281l-231 -1243h464l-49 -270h-745z" />
<glyph unicode="M" horiz-adv-x="1843" d="M78 0l280 1513h385l195 -1146l616 1146h385l-280 -1513h-281l211 1135l-606 -1135h-229l-185 1135l-211 -1135h-280z" />
<glyph unicode="N" horiz-adv-x="1515" d="M78 0l280 1513h320l422 -1101l205 1101h280l-280 -1513h-314l-428 1100l-205 -1100h-280z" />
<glyph unicode="O" horiz-adv-x="1720" d="M125 614q0 242 137 458t359.5 342t461.5 126q283 0 465.5 -180t182.5 -461q0 -240 -130.5 -454t-348.5 -343t-461 -129q-291 0 -478.5 180t-187.5 461zM412 662q0 -182 120.5 -300t307.5 -118q238 0 421 183t183 431q0 180 -117 296t-299 116q-240 0 -428 -185t-188 -423 z" />
<glyph unicode="P" d="M78 0l280 1513h375q274 0 373 -69q141 -100 141 -293q0 -117 -49 -234.5t-131 -195.5q-94 -88 -194.5 -117t-317.5 -29h-90l-107 -575h-280zM514 844h82q176 0 270.5 55t94.5 184q0 90 -54.5 125t-222.5 35h-94z" />
<glyph unicode="Q" horiz-adv-x="1720" d="M125 612q0 242 134 457t356.5 343t471.5 128q299 0 485.5 -174t186.5 -455q0 -397 -286 -647q70 -45 141 -45q20 0 61 6l-47 -254q-20 -2 -49 -2q-96 0 -162.5 24.5t-161.5 98.5q-217 -119 -446 -119q-295 0 -489.5 182.5t-194.5 456.5zM410 684q100 27 252 27 q354 0 616 -293q90 74 142.5 190.5t52.5 247.5q0 184 -121 299t-316 115q-240 0 -423 -166t-203 -420zM455 465q127 -221 401 -221q96 0 197 39q-199 199 -449 198q-61 0 -149 -16z" />
<glyph unicode="R" horiz-adv-x="1187" d="M78 0l280 1513h437q489 0 489 -380q0 -213 -126 -365t-361 -209l305 -559h-346l-291 580l-107 -580h-280zM506 791h137q186 0 270 76.5t84 199.5q0 94 -60 135t-222 41h-125z" />
<glyph unicode="S" horiz-adv-x="1064" d="M39 350q0 16 4 82h293q-2 -16 -2 -43q0 -68 46 -106.5t128 -38.5q102 0 174 64.5t72 156.5q0 78 -45 117q-31 25 -66 42t-176 74q-248 98 -248 338q0 199 159 351.5t363 152.5q164 0 273.5 -95t109.5 -239q0 -45 -8 -96h-289q0 90 -31.5 125t-103.5 35q-78 0 -132 -55.5 t-54 -131.5q0 -59 61 -104q31 -23 156 -68q170 -63 243.5 -149t73.5 -219q0 -223 -176 -396.5t-401 -173.5q-190 0 -307 105.5t-117 271.5z" />
<glyph unicode="T" horiz-adv-x="860" d="M182 1243l49 270h844l-49 -270h-285l-231 -1243h-281l232 1243h-279z" />
<glyph unicode="U" horiz-adv-x="1310" d="M162 360q0 90 20 195l176 958h281l-176 -958q-18 -98 -19 -143q0 -70 55.5 -119t133.5 -49q231 0 291 311l176 958h280l-176 -958q-51 -279 -220 -430.5t-400 -151.5q-182 0 -302 109.5t-120 277.5z" />
<glyph unicode="V" horiz-adv-x="1433" d="M236 1513h294l195 -1151l621 1151h294l-866 -1513h-229z" />
<glyph unicode="W" horiz-adv-x="1843" d="M233 1513h287l70 -1056l454 1056h205l58 -1056l465 1056h286l-723 -1513h-223l-57 1001l-437 -1001h-221z" />
<glyph unicode="X" horiz-adv-x="1392" d="M-51 0l659 754l-379 759h334l254 -528l461 528h326l-666 -759l385 -754h-326l-266 522l-448 -522h-334z" />
<glyph unicode="Y" horiz-adv-x="1269" d="M225 1513h303l205 -696l465 696h303l-674 -954l-104 -559h-281l105 559z" />
<glyph unicode="Z" horiz-adv-x="1024" d="M-25 0l43 240l762 1003h-542l49 270h876l-47 -253l-754 -990h609l-49 -270h-947z" />
<glyph unicode="[" horiz-adv-x="655" d="M143 150q0 109 23 233l98 530q41 236 183.5 390.5t369.5 209.5l-55 -301q-104 -39 -152.5 -114.5t-79.5 -239.5l-98 -522q-10 -61 -10 -115q0 -82 25.5 -125t93.5 -76l-56 -301q-162 39 -252 155t-90 276z" />
<glyph unicode="\" horiz-adv-x="1310" d="M391 1513h197l381 -1513h-197z" />
<glyph unicode="]" horiz-adv-x="655" d="M-35 -281l55 301q106 35 156.5 111t83.5 244l98 522q10 61 11 115q0 84 -27 126t-100 74l55 301q166 -31 258 -148.5t92 -281.5q0 -109 -22 -233l-99 -531q-45 -242 -187.5 -395.5t-373.5 -204.5z" />
<glyph unicode="^" horiz-adv-x="1228" d="M205 776l502 760h247l234 -803l-236 -67l-170 553l-376 -555z" />
<glyph unicode="_" horiz-adv-x="1024" d="M-115 -283l33 185h1026l-33 -185h-1026z" />
<glyph unicode="`" horiz-adv-x="860" d="M262 1473l172 202l387 -260l-149 -180z" />
<glyph unicode="a" horiz-adv-x="1351" d="M92 436q0 297 209 511t498 214q238 0 334 -178l26 152h250l-209 -1135h-250l27 147q-182 -174 -410 -174q-215 0 -345 127t-130 336zM373 492q0 -123 74.5 -196t201.5 -73q170 0 287 120t117 298q0 125 -74 197.5t-201 72.5q-164 0 -284.5 -125.5t-120.5 -293.5z" />
<glyph unicode="b" horiz-adv-x="1351" d="M49 0l281 1513h272l-90 -483q98 80 184 113t205 33q201 0 331 -133.5t130 -340.5q0 -297 -204 -513t-464 -216q-129 0 -207.5 36t-160.5 136l-27 -145h-250zM403 494q0 -121 77 -196t200 -75q164 0 282.5 124t118.5 296q0 129 -73.5 206t-198.5 77q-168 0 -287 -127 t-119 -305z" />
<glyph unicode="c" horiz-adv-x="1310" d="M96 457q0 279 217 491.5t500 212.5q195 0 329 -103.5t169 -301.5h-307q-47 156 -232 155q-162 0 -278.5 -120.5t-116.5 -288.5q0 -127 73.5 -203t194.5 -76q176 0 287 150h307q-109 -193 -273.5 -296.5t-363.5 -103.5q-217 0 -361.5 138.5t-144.5 345.5z" />
<glyph unicode="d" horiz-adv-x="1351" d="M94 451q0 289 210 507t487 218q104 0 191 -38t132 -104l88 479h273l-281 -1513h-250l29 147q-186 -174 -408 -174q-213 0 -342 131.5t-129 346.5zM375 508q0 -127 78.5 -206t203.5 -79q156 0 278 128t122 292q0 127 -75 205t-198 78q-166 0 -287.5 -124t-121.5 -294z" />
<glyph unicode="e" horiz-adv-x="1310" d="M94 457q0 279 218 491.5t503 212.5q213 0 349 -129t136 -332q0 -156 -40 -254h-879q0 -98 74.5 -160.5t191.5 -62.5q164 0 277 113h297q-92 -168 -256 -265.5t-357 -97.5q-227 0 -370.5 135.5t-143.5 348.5zM418 688h629q-12 223 -275 223q-119 0 -217 -61.5t-137 -161.5 z" />
<glyph unicode="f" horiz-adv-x="573" d="M55 0l164 887h-98l43 227h98q53 203 171 301t272 98q35 0 79 -4l-49 -258h-37q-145 0 -163 -137h159l-43 -227h-159l-164 -887h-273z" />
<glyph unicode="g" horiz-adv-x="1351" d="M0 -92h309q47 -66 107.5 -93.5t156.5 -27.5q150 0 243 86t142 277q-98 -94 -190 -135.5t-213 -41.5q-211 0 -336 128t-125 343q0 293 204 505t482 212q119 0 198 -40t136 -130l27 144h260l-170 -920q-123 -668 -715 -668q-418 1 -516 361zM375 477q0 -119 69.5 -186.5 t192.5 -67.5q170 0 282.5 125t112.5 297q0 121 -73.5 193.5t-194.5 72.5q-170 0 -279.5 -123t-109.5 -311z" />
<glyph unicode="h" horiz-adv-x="1228" d="M49 0l281 1513h272l-84 -456q127 106 305 106q168 0 269.5 -89t101.5 -238q0 -90 -20 -195l-119 -641h-273l107 580q18 98 18 165q0 80 -47 124t-131 44q-121 0 -193.5 -75.5t-107.5 -262.5l-106 -575h-273z" />
<glyph unicode="i" horiz-adv-x="491" d="M49 0l211 1135h272l-210 -1135h-273zM291 1298l51 271h272l-51 -271h-272z" />
<glyph unicode="j" horiz-adv-x="532" d="M-96 -379l49 264q78 14 103.5 49t45.5 148l195 1053h272l-196 -1059q-35 -211 -158 -331t-311 -124zM328 1298l51 271h272l-51 -271h-272z" />
<glyph unicode="k" horiz-adv-x="1187" d="M49 0l281 1513h272l-170 -913l461 535h326l-508 -555l364 -580h-366l-289 530l-98 -530h-273z" />
<glyph unicode="l" horiz-adv-x="491" d="M49 0l281 1513h272l-280 -1513h-273z" />
<glyph unicode="m" horiz-adv-x="1925" d="M49 0l211 1135h250l-21 -107q133 133 324 133q223 0 297 -176q158 176 399 176q180 0 279.5 -89t99.5 -249q0 -74 -16 -168l-121 -655h-272l114 623q14 90 15 137q0 66 -47.5 108.5t-122.5 42.5q-121 0 -189.5 -73.5t-107.5 -278.5l-105 -559h-272l115 623q14 82 14 112 q0 176 -180 176q-121 0 -185.5 -74.5t-101.5 -277.5l-104 -559h-273z" />
<glyph unicode="n" horiz-adv-x="1228" d="M49 0l211 1135h252l-20 -109q94 76 168.5 105.5t168.5 29.5q176 0 270.5 -87t94.5 -249q0 -82 -25 -217l-112 -608h-273l103 555q18 102 18 188q0 168 -172 168q-121 0 -196.5 -78.5t-116.5 -297.5l-98 -535h-273z" />
<glyph unicode="o" horiz-adv-x="1310" d="M94 453q0 281 219 494.5t508 213.5q217 0 358.5 -139t141.5 -352q0 -274 -221 -485.5t-510 -211.5q-211 0 -353.5 137.5t-142.5 342.5zM375 500q0 -119 76.5 -198t193.5 -79q154 0 274.5 126t120.5 284q0 121 -75.5 199.5t-190.5 78.5q-156 0 -277.5 -124.5 t-121.5 -286.5z" />
<glyph unicode="p" horiz-adv-x="1351" d="M-20 -379l280 1514h250l-25 -134q72 76 178.5 118t221.5 42q207 0 338 -124t131 -332q0 -301 -202 -516.5t-486 -215.5q-203 0 -324 133l-90 -485h-272zM403 494q0 -117 79 -194t200 -77q152 0 271.5 126t119.5 284q0 119 -72.5 198.5t-195.5 79.5q-162 0 -282 -124.5 t-120 -292.5z" />
<glyph unicode="q" horiz-adv-x="1351" d="M96 457q0 279 210 491.5t485 212.5q246 0 331 -172l29 146h250l-281 -1514h-272l90 488q-154 -135 -373 -136q-209 0 -339 134.5t-130 349.5zM377 498q0 -127 72.5 -201t197.5 -74q158 0 277.5 122t119.5 284q0 127 -72.5 204.5t-193.5 77.5q-164 0 -282.5 -122.5 t-118.5 -290.5z" />
<glyph unicode="r" horiz-adv-x="655" d="M49 0l211 1135h250l-21 -111q66 80 129 110q59 28 152 27h12l-49 -262q-121 -2 -199.5 -73.5t-95.5 -194.5l-116 -631h-273z" />
<glyph unicode="s" horiz-adv-x="901" d="M39 281q0 18 4 79h274q4 -137 127 -137q59 0 102.5 39t43.5 92q0 41 -32 64.5t-136 60.5q-150 51 -204 110.5t-54 168.5q0 164 134 283.5t316 119.5q125 0 218.5 -77.5t93.5 -184.5q0 -31 -6 -78h-267q-4 90 -90 90q-47 0 -83 -33.5t-36 -78.5q0 -35 25 -52.5t143 -54.5 q145 -47 201.5 -104.5t56.5 -159.5q0 -180 -146 -317.5t-339 -137.5q-154 0 -250 85.5t-96 222.5z" />
<glyph unicode="t" horiz-adv-x="614" d="M90 0l164 887h-133l47 248h133l70 378h272l-70 -378h164l-47 -248h-164l-164 -887h-272z" />
<glyph unicode="u" horiz-adv-x="1228" d="M119 311q0 82 24 215l113 609h272l-102 -555q-21 -107 -21 -183q0 -7 1 -14q0 -76 45 -118t122 -42q135 0 210 77t116 300l98 535h273l-211 -1135h-252l20 109q-164 -135 -356 -136q-166 0 -259 95.5t-93 242.5z" />
<glyph unicode="v" d="M152 1135h303l123 -752l397 752h307l-668 -1135h-217z" />
<glyph unicode="w" horiz-adv-x="1638" d="M170 1135h293l74 -693l319 693h217l57 -693l336 693h291l-620 -1135h-170l-78 735l-357 -735h-167z" />
<glyph unicode="x" d="M-59 0l512 586l-246 549h307l141 -342l265 342h307l-449 -549l295 -586h-328l-165 389l-312 -389h-327z" />
<glyph unicode="y" horiz-adv-x="1187" d="M88 -379l299 485l-225 1029h311l115 -736l411 736h314l-932 -1514h-293z" />
<glyph unicode="z" horiz-adv-x="942" d="M-20 0l45 242l624 651h-444l45 242h770l-45 -242l-623 -651h539l-45 -242h-866z" />
<glyph unicode="{" horiz-adv-x="696" d="M131 543l31 166q94 20 137 65t57 135l60 322q27 150 111.5 217.5t246.5 67.5q35 0 64 -3l-31 -163q-82 -10 -117 -30t-49 -69l-27 -110l-47 -252q-35 -223 -213 -258l-20 -6q78 -16 111.5 -55.5t33.5 -112.5q0 -55 -8 -95l-47 -251q-14 -76 -14 -86l-7 -37l7 -31 q10 -45 129 -55l-31 -164q-29 -2 -66 -2q-135 0 -197.5 47t-62.5 147q0 43 11 90l59 322q8 57 8 70q0 104 -129 131z" />
<glyph unicode="|" horiz-adv-x="1228" d="M520 -281v1794h283v-1794h-283z" />
<glyph unicode="}" horiz-adv-x="696" d="M-33 -262l31 164l14 2q100 12 123 37.5t55 169.5l48 251q20 117 71 177.5t144 81.5l18 6q-80 20 -112.5 59t-32.5 115q0 49 8 88l47 252q18 100 20 114q0 47 -25.5 64.5t-109.5 30.5l31 163q31 2 68 3q133 0 195.5 -47.5t62.5 -147.5q0 -18 -11 -90l-59 -322 q-6 -33 -6 -67q0 -53 33.5 -89t95.5 -44l-31 -166q-86 -14 -133 -62.5t-63 -138.5l-60 -322q-29 -156 -112.5 -220t-243.5 -64q-37 0 -66 2z" />
<glyph unicode="~" horiz-adv-x="1228" d="M154 592q111 143 183.5 197.5t168.5 54.5q68 0 147 -33l129 -55l73 -30.5t36 -13.5t27 -1q74 0 186 151l102 -151q-102 -129 -180 -184.5t-158 -55.5q-70 0 -180 49l-102 45q-94 41 -123 41q-53 0 -105 -45q-20 -18 -104 -123z" />
<glyph unicode="&#xa1;" horiz-adv-x="573" d="M23 -379l208 1129h273l-209 -1129h-272zM254 872l49 263h272l-49 -263h-272z" />
<glyph unicode="&#xa2;" d="M156 682q0 199 130 359.5t330 209.5l41 213h256l-41 -213q125 -29 201 -123t80 -221h-291q-16 39 -65 66.5t-101 27.5q-106 0 -183 -79.5t-77 -188.5q0 -82 50.5 -131t134.5 -49q47 0 83.5 16.5t100.5 65.5h299q-84 -141 -178.5 -218t-227.5 -114l-43 -223h-256l43 223 q-137 31 -211.5 135.5t-74.5 243.5z" />
<glyph unicode="&#xa3;" d="M20 0l48 256h286q70 94 70 203q0 92 -78 176h-291l49 256h119q-12 39 -12 80q0 223 177 396t407 173q174 0 289.5 -105.5t115.5 -263.5q0 -6 -4 -63h-276q0 86 -48.5 134t-113.5 48q-104 0 -185 -88t-81 -201q0 -61 24 -110h424l-49 -256h-219q31 -84 30 -156 q0 -94 -59 -223h21q233 0 239 305h271q6 -43 6 -63q0 -78 -51.5 -178.5t-124.5 -169.5q-90 -84 -189.5 -117t-259.5 -33h-535z" />
<glyph unicode="&#xa4;" d="M80 469l104 88q-37 80 -37 152q0 207 136 374l-72 93l195 163l75 -90q133 74 275 74q143 0 258 -74l108 90l127 -168l-102 -88q35 -90 35 -170q0 -102 -27 -176.5t-106 -179.5l69 -88l-188 -166l-76 86q-135 -76 -291 -76q-127 0 -246 76l-104 -86zM399 760 q0 -80 64.5 -140.5t148.5 -60.5q125 0 221.5 93t96.5 212q0 90 -61.5 150.5t-149.5 60.5q-121 0 -220.5 -90t-99.5 -225z" />
<glyph unicode="&#xa5;" d="M43 383l33 178h397l-74 217h-295l33 178h199l-184 557h305l198 -698l455 698h315l-391 -557h195l-33 -178h-295l-156 -217h394l-33 -178h-393l-72 -383h-272l71 383h-397z" />
<glyph unicode="&#xa6;" horiz-adv-x="1228" d="M520 -281v717h283v-717h-283zM520 797v716h283v-716h-283z" />
<glyph unicode="&#xa7;" d="M78 18q0 39 6 95h272q-8 -33 -8 -64q0 -51 52.5 -86t127.5 -35q84 0 144.5 46t60.5 112q0 33 -23.5 55.5t-103.5 69.5l-303 172q-84 47 -120 105.5t-36 146.5q0 236 226 375q-29 57 -29 127q0 172 139.5 287.5t345.5 115.5q168 0 261.5 -86t93.5 -242q0 -35 -2 -59h-258 q-6 78 -41 107.5t-117 29.5q-74 0 -117 -31.5t-43 -89.5q0 -66 101 -120l305 -166q135 -72 135 -226q0 -96 -47 -177t-168 -173q63 -70 63 -178q0 -180 -152.5 -315.5t-369.5 -135.5q-182 0 -288.5 98.5t-106.5 241.5zM393 725l2 -25q6 -53 103 -104l282 -156 q104 74 105 146q0 31 -20.5 51t-86.5 57l-276 152q-109 -70 -109 -121z" />
<glyph unicode="&#xa8;" horiz-adv-x="1024" d="M328 1298l51 271h272l-51 -271h-272zM758 1298l51 271h272l-51 -271h-272z" />
<glyph unicode="&#xa9;" horiz-adv-x="1515" d="M88 690q0 297 210 507t507 210t507 -210t210 -507t-210 -507t-507 -210t-507 210t-210 507zM211 690q0 -246 174 -420t420 -174t420 174t174 420t-174 420t-420 174t-420 -174t-174 -420zM344 616q-4 190 162 343t377 153q145 0 249.5 -71.5t135.5 -206.5h-217 q-59 96 -197 96q-121 0 -216 -83t-93 -196q2 -88 64.5 -144t158.5 -56q106 0 221 92h221q-66 -123 -195.5 -199t-277.5 -76q-170 0 -279.5 99t-113.5 249z" />
<glyph unicode="&#xaa;" horiz-adv-x="737" d="M123 639l27 143h645l-27 -143h-645zM221 1147q0 156 115 274.5t260 118.5q113 0 174 -102l16 80h136l-115 -611h-135l16 84q-98 -104 -229 -104q-106 0 -172 74.5t-66 185.5zM383 1180q0 -61 38 -102.5t95 -41.5q82 0 143.5 65.5t61.5 153.5q0 57 -40 96.5t-97 39.5 q-76 0 -138.5 -65.5t-62.5 -145.5z" />
<glyph unicode="&#xab;" horiz-adv-x="942" d="M113 489l39 205l333 267l-47 -252l-159 -117l116 -119l-47 -252zM549 489l39 205l334 267l-48 -252l-159 -117l116 -119l-47 -252z" />
<glyph unicode="&#xac;" horiz-adv-x="1228" d="M158 559v283h1007v-518h-282v235h-725z" />
<glyph unicode="&#xad;" horiz-adv-x="860" d="M188 469l45 242h568l-45 -242h-568z" />
<glyph unicode="&#xae;" horiz-adv-x="1515" d="M88 690q0 297 210 507t507 210t507 -210t210 -507t-210 -507t-507 -210t-507 210t-210 507zM211 690q0 -246 174 -420t420 -174t420 174t174 420t-174 420t-420 174t-420 -174t-174 -420zM451 283l151 817h264q287 0 295 -213q2 -111 -63.5 -192t-190.5 -117l183 -295 h-248l-148 258l-47 -258h-196zM731 729h57q176 0 173 115q0 41 -32 57.5t-112 16.5h-51z" />
<glyph unicode="&#xaf;" horiz-adv-x="860" d="M332 1333l35 203h573l-37 -203h-571z" />
<glyph unicode="&#xb0;" horiz-adv-x="819" d="M260 1100q0 127 92 216t226 89q127 0 217 -90t90 -217t-91.5 -217t-222.5 -90q-129 0 -220 90t-91 219zM377 1100q0 -80 57.5 -136.5t136.5 -56.5q82 0 139.5 56.5t57.5 134.5t-57.5 134t-135.5 56q-82 0 -140 -55t-58 -133z" />
<glyph unicode="&#xb1;" horiz-adv-x="1228" d="M158 0v283h1007v-283h-1007zM158 653v283h362v362h283v-362h362v-283h-362v-116h-283v116h-362z" />
<glyph unicode="&#xb2;" horiz-adv-x="688" d="M82 606l31 154l395 301q143 109 143 199q0 49 -28.5 76.5t-79.5 27.5q-131 0 -176 -174h-183q35 168 138.5 253t250.5 85q117 0 192 -66.5t75 -171.5q0 -195 -246 -366l-213 -150h364l-30 -168h-633z" />
<glyph unicode="&#xb3;" horiz-adv-x="688" d="M106 842q0 6 5 51h186v-16q0 -55 32.5 -89t86.5 -34q72 0 126 50t54 116q0 61 -45 87.5t-156 26.5l33 172q172 0 172 99q0 59 -70 59q-72 0 -88 -80h-188q29 113 109.5 178.5t193.5 65.5q102 0 166.5 -58.5t64.5 -148.5q0 -117 -114 -193q111 -57 110 -176 q0 -145 -118.5 -253.5t-280.5 -108.5q-121 0 -200 71.5t-79 180.5z" />
<glyph unicode="&#xb4;" horiz-adv-x="860" d="M440 1415l484 260l96 -202l-498 -238z" />
<glyph unicode="&#xb5;" horiz-adv-x="1179" d="M-20 -379l280 1514h272l-106 -570q-8 -41 -8 -76q0 -117 60.5 -191.5t154.5 -74.5q117 0 188 105q27 41 39 85t39 187l98 535h273l-211 -1135h-252l20 109q-119 -135 -258 -136q-141 0 -227 133l-90 -485h-272z" />
<glyph unicode="&#xb6;" horiz-adv-x="1228" d="M211 1001q0 106 47 209t125 172q82 72 189.5 101.5t279.5 29.5h446l-329 -1775h-209l289 1556h-170l-289 -1556h-207l174 938q-168 8 -257 91.5t-89 233.5z" />
<glyph unicode="&#xb7;" horiz-adv-x="573" d="M203 512q0 53 39 92t92 39t92 -39t39 -92t-39 -92t-92 -39t-92 39t-39 92z" />
<glyph unicode="&#xb8;" horiz-adv-x="696" d="M27 -340h125q14 -59 65 -59q37 0 68.5 33.5t31.5 74.5q0 31 -18 52.5t-47 21.5q-39 0 -88 -55l-96 53l135 229h106l-86 -129q41 14 62 15q66 0 108.5 -47.5t42.5 -118.5q0 -12 -4 -41q-16 -90 -80.5 -145.5t-152.5 -55.5q-80 0 -126 47t-46 125z" />
<glyph unicode="&#xb9;" horiz-adv-x="688" d="M367 606l137 740h-137l30 167h316l-168 -907h-178z" />
<glyph unicode="&#xba;" horiz-adv-x="737" d="M123 641l27 143h628l-26 -143h-629zM221 1165q0 150 116 262.5t267 112.5q117 0 187.5 -71.5t70.5 -188.5q0 -145 -114.5 -258t-264.5 -113q-109 0 -185.5 75t-76.5 181zM373 1192q0 -59 39 -96t100 -37q78 0 138.5 59.5t60.5 134.5q0 61 -39 102.5t-97 41.5 q-80 0 -141 -62.5t-61 -142.5z" />
<glyph unicode="&#xbb;" horiz-adv-x="942" d="M139 221l47 252l162 119l-119 117l47 252l236 -267l-39 -205zM575 221l48 252l161 119l-118 117l47 252l235 -267l-39 -205z" />
<glyph unicode="&#xbc;" horiz-adv-x="1720" d="M367 0l907 1513h194l-907 -1513h-194zM367 606l137 740h-137l30 167h316l-168 -907h-178zM979 133l27 139l553 635h155l-115 -616h99l-29 -158h-98l-25 -133h-186l24 133h-405zM1204 291h209l57 311z" />
<glyph unicode="&#xbd;" horiz-adv-x="1720" d="M358 0l908 1513h194l-907 -1513h-195zM377 606l137 740h-137l31 167h315l-168 -907h-178zM1001 0l31 154l395 301q143 109 144 198q0 49 -29 77t-80 28q-131 0 -176 -174h-182q35 168 138.5 253t250.5 85q117 0 191.5 -67t74.5 -171q0 -195 -246 -367l-213 -149h365 l-31 -168h-633z" />
<glyph unicode="&#xbe;" horiz-adv-x="1720" d="M106 842q0 6 5 51h186v-16q0 -55 32.5 -89t86.5 -34q72 0 126 50t54 116q0 61 -45 87.5t-156 26.5l33 172q172 0 172 99q0 59 -70 59q-72 0 -88 -80h-188q29 113 109.5 178.5t193.5 65.5q102 0 166.5 -58.5t64.5 -148.5q0 -117 -114 -193q111 -57 110 -176 q0 -145 -118.5 -253.5t-280.5 -108.5q-121 0 -200 71.5t-79 180.5zM432 0l907 1513h195l-907 -1513h-195zM979 133l27 139l553 635h155l-115 -616h99l-29 -158h-98l-25 -133h-186l24 133h-405zM1204 291h209l57 311z" />
<glyph unicode="&#xbf;" d="M96 -29q0 150 82 269q51 72 205 190q98 78 134 137.5t56 184.5h273q-37 -199 -101.5 -298.5t-240.5 -224.5q-127 -92 -127 -213q0 -68 45 -109.5t117 -41.5q162 0 221 205h272q-51 -217 -203.5 -346.5t-353.5 -129.5q-168 0 -273.5 104.5t-105.5 272.5zM596 872l47 263 h272l-47 -263h-272z" />
<glyph unicode="&#xc0;" horiz-adv-x="1515" d="M-47 0l911 1513h221l355 -1513h-310l-90 391h-538l-240 -391h-309zM653 1831l172 203l387 -260l-149 -181zM655 662h324l-78 456z" />
<glyph unicode="&#xc1;" horiz-adv-x="1515" d="M-47 0l911 1513h221l355 -1513h-310l-90 391h-538l-240 -391h-309zM655 662h324l-78 456zM834 1774l483 260l96 -203l-498 -238z" />
<glyph unicode="&#xc2;" horiz-adv-x="1515" d="M-47 0l911 1513h221l355 -1513h-310l-90 391h-538l-240 -391h-309zM592 1651l354 282h219l244 -282h-297l-84 131l-135 -131h-301zM655 662h324l-78 456z" />
<glyph unicode="&#xc3;" horiz-adv-x="1515" d="M-47 0l911 1513h221l355 -1513h-310l-90 391h-538l-240 -391h-309zM655 662h324l-78 456zM690 1827q41 43 97.5 70.5t101.5 27.5q25 0 115 -31.5t110 -31.5q43 0 69.5 11t96.5 60l70 -168q-92 -115 -222 -114q-14 0 -122.5 31.5t-124.5 31.5q-41 0 -113 -61z" />
<glyph unicode="&#xc4;" horiz-adv-x="1515" d="M-47 0l911 1513h221l355 -1513h-310l-90 391h-538l-240 -391h-309zM637 1657l51 270h273l-52 -270h-272zM655 662h324l-78 456zM1067 1657l51 270h273l-52 -270h-272z" />
<glyph unicode="&#xc5;" horiz-adv-x="1515" d="M-47 0l911 1513h221l355 -1513h-310l-90 391h-538l-240 -391h-309zM655 662h324l-78 456zM795 1774q0 111 85 193.5t195 82.5q82 0 137.5 -53t55.5 -133q0 -111 -85 -194t-198 -83q-84 0 -137 52.5t-53 134.5zM948 1800q0 -25 20.5 -44t49.5 -19q37 0 66.5 29.5 t29.5 66.5q0 27 -20.5 47.5t-46.5 20.5q-39 0 -69 -31t-30 -70z" />
<glyph unicode="&#xc6;" horiz-adv-x="1843" d="M-27 0l1278 1513h695l-50 -270h-446l-68 -352h424l-49 -270h-424l-65 -351h446l-49 -270h-727l72 391h-398l-303 -391h-336zM825 662h236l72 389z" />
<glyph unicode="&#xc7;" horiz-adv-x="1597" d="M127 621q0 233 132 446t349 343t453 130q233 0 403 -117.5t232 -343.5h-316q-59 102 -144 146.5t-216 44.5q-233 0 -419.5 -179.5t-186.5 -420.5q0 -186 118.5 -306t301.5 -120q111 0 202.5 40t206.5 138h330q-117 -193 -315.5 -313.5t-419.5 -133.5l-62 -94q41 14 62 15 q66 0 108.5 -47.5t42.5 -118.5q0 -12 -4 -41q-16 -90 -80.5 -145.5t-152.5 -55.5q-80 0 -126 47t-46 125h125q14 -59 65 -59q37 0 68.5 33.5t31.5 74.5q0 31 -18 52.5t-47 21.5q-39 0 -88 -55l-96 53l114 194q-270 18 -439 199t-169 447z" />
<glyph unicode="&#xc8;" horiz-adv-x="1064" d="M78 0l280 1513h813l-49 -270h-532l-68 -352h510l-49 -270h-510l-65 -351h532l-49 -270h-813zM444 1831l172 203l388 -260l-150 -181z" />
<glyph unicode="&#xc9;" horiz-adv-x="1064" d="M78 0l280 1513h813l-49 -270h-532l-68 -352h510l-49 -270h-510l-65 -351h532l-49 -270h-813zM625 1774l483 260l96 -203l-497 -238z" />
<glyph unicode="&#xca;" horiz-adv-x="1064" d="M78 0l280 1513h813l-49 -270h-532l-68 -352h510l-49 -270h-510l-65 -351h532l-49 -270h-813zM383 1651l354 282h219l244 -282h-297l-84 131l-135 -131h-301z" />
<glyph unicode="&#xcb;" horiz-adv-x="1064" d="M78 0l280 1513h813l-49 -270h-532l-68 -352h510l-49 -270h-510l-65 -351h532l-49 -270h-813zM428 1657l51 270h273l-52 -270h-272zM858 1657l51 270h273l-52 -270h-272z" />
<glyph unicode="&#xcc;" horiz-adv-x="573" d="M78 0l280 1513h281l-281 -1513h-280zM244 1831l172 203l387 -260l-150 -181z" />
<glyph unicode="&#xcd;" horiz-adv-x="573" d="M78 0l280 1513h281l-281 -1513h-280zM293 1774l483 260l96 -203l-497 -238z" />
<glyph unicode="&#xce;" horiz-adv-x="573" d="M78 0l280 1513h281l-281 -1513h-280zM117 1651l354 282h219l244 -282h-297l-84 131l-135 -131h-301z" />
<glyph unicode="&#xcf;" horiz-adv-x="573" d="M78 0l280 1513h281l-281 -1513h-280zM162 1657l51 270h272l-51 -270h-272zM592 1657l51 270h272l-51 -270h-272z" />
<glyph unicode="&#xd0;" horiz-adv-x="1519" d="M88 657l41 220h193l118 636h346q395 0 568.5 -147t173.5 -432q0 -240 -104.5 -449t-286.5 -333q-121 -82 -264.5 -117t-360.5 -35h-352l121 657h-193zM489 268h62q188 0 310 39t206 127q80 82 127 199t47 235q0 193 -116.5 285t-399.5 92h-55l-68 -368h305l-41 -220h-305 z" />
<glyph unicode="&#xd1;" horiz-adv-x="1515" d="M78 0l280 1513h320l422 -1101l205 1101h280l-280 -1513h-314l-428 1100l-205 -1100h-280zM688 1827q41 43 97.5 70.5t101.5 27.5q27 0 117 -31.5t108 -31.5q43 0 69.5 11t96.5 60l70 -168q-92 -115 -222 -114q-14 0 -122.5 31.5t-124.5 31.5q-41 0 -113 -61z" />
<glyph unicode="&#xd2;" horiz-adv-x="1720" d="M125 614q0 242 137 458t359.5 342t461.5 126q283 0 465.5 -180t182.5 -461q0 -240 -130.5 -454t-348.5 -343t-461 -129q-291 0 -478.5 180t-187.5 461zM412 662q0 -182 120.5 -300t307.5 -118q238 0 421 183t183 431q0 180 -117 296t-299 116q-240 0 -428 -185t-188 -423 zM758 1831l172 203l387 -260l-150 -181z" />
<glyph unicode="&#xd3;" horiz-adv-x="1720" d="M125 614q0 242 137 458t359.5 342t461.5 126q283 0 465.5 -180t182.5 -461q0 -240 -130.5 -454t-348.5 -343t-461 -129q-291 0 -478.5 180t-187.5 461zM412 662q0 -182 120.5 -300t307.5 -118q238 0 421 183t183 431q0 180 -117 296t-299 116q-240 0 -428 -185t-188 -423 zM938 1774l483 260l97 -203l-498 -238z" />
<glyph unicode="&#xd4;" horiz-adv-x="1720" d="M125 614q0 242 137 458t359.5 342t461.5 126q283 0 465.5 -180t182.5 -461q0 -240 -130.5 -454t-348.5 -343t-461 -129q-291 0 -478.5 180t-187.5 461zM412 662q0 -182 120.5 -300t307.5 -118q238 0 421 183t183 431q0 180 -117 296t-299 116q-240 0 -428 -185t-188 -423 zM696 1651l355 282h219l243 -282h-296l-84 131l-136 -131h-301z" />
<glyph unicode="&#xd5;" horiz-adv-x="1720" d="M125 614q0 242 137 458t359.5 342t461.5 126q283 0 465.5 -180t182.5 -461q0 -240 -130.5 -454t-348.5 -343t-461 -129q-291 0 -478.5 180t-187.5 461zM412 662q0 -182 120.5 -300t307.5 -118q238 0 421 183t183 431q0 180 -117 296t-299 116q-240 0 -428 -185t-188 -423 zM795 1827q41 43 97 70.5t101 27.5q27 0 117 -31.5t109 -31.5q43 0 69.5 11t95.5 60l70 -168q-92 -115 -221 -114q-14 0 -123 31.5t-125 31.5q-41 0 -113 -61z" />
<glyph unicode="&#xd6;" horiz-adv-x="1720" d="M125 614q0 242 137 458t359.5 342t461.5 126q283 0 465.5 -180t182.5 -461q0 -240 -130.5 -454t-348.5 -343t-461 -129q-291 0 -478.5 180t-187.5 461zM412 662q0 -182 120.5 -300t307.5 -118q238 0 421 183t183 431q0 180 -117 296t-299 116q-240 0 -428 -185t-188 -423 zM741 1657l52 270h272l-51 -270h-273zM1171 1657l52 270h272l-51 -270h-273z" />
<glyph unicode="&#xd7;" horiz-adv-x="1228" d="M205 256l256 256l-256 256l201 201l256 -256l256 256l200 -201l-256 -256l256 -256l-200 -201l-256 256l-256 -256z" />
<glyph unicode="&#xd8;" horiz-adv-x="1720" d="M125 -23l170 201q-160 186 -160 430q0 240 132 456t350.5 346t459.5 130q166 0 324 -67l188 219l166 -142l-180 -209q168 -162 168 -444q0 -225 -128 -439t-347 -349.5t-463 -135.5q-168 0 -336 74l-180 -211zM422 659q0 -115 74 -247l706 829q-84 29 -170 29 q-240 0 -425 -185.5t-185 -425.5zM666 279q88 -35 182 -35q244 0 426 182t182 424q0 160 -78 260z" />
<glyph unicode="&#xd9;" horiz-adv-x="1310" d="M162 360q0 90 20 195l176 958h281l-176 -958q-18 -98 -19 -143q0 -70 55.5 -119t133.5 -49q231 0 291 311l176 958h280l-176 -958q-51 -279 -220 -430.5t-400 -151.5q-182 0 -302 109.5t-120 277.5zM549 1831l172 203l387 -260l-150 -181z" />
<glyph unicode="&#xda;" horiz-adv-x="1310" d="M162 360q0 90 20 195l176 958h281l-176 -958q-18 -98 -19 -143q0 -70 55.5 -119t133.5 -49q231 0 291 311l176 958h280l-176 -958q-51 -279 -220 -430.5t-400 -151.5q-182 0 -302 109.5t-120 277.5zM729 1774l483 260l97 -203l-498 -238z" />
<glyph unicode="&#xdb;" horiz-adv-x="1310" d="M162 360q0 90 20 195l176 958h281l-176 -958q-18 -98 -19 -143q0 -70 55.5 -119t133.5 -49q231 0 291 311l176 958h280l-176 -958q-51 -279 -220 -430.5t-400 -151.5q-182 0 -302 109.5t-120 277.5zM487 1651l355 282h219l244 -282h-297l-84 131l-136 -131h-301z" />
<glyph unicode="&#xdc;" horiz-adv-x="1310" d="M162 360q0 90 20 195l176 958h281l-176 -958q-18 -98 -19 -143q0 -70 55.5 -119t133.5 -49q231 0 291 311l176 958h280l-176 -958q-51 -279 -220 -430.5t-400 -151.5q-182 0 -302 109.5t-120 277.5zM532 1657l52 270h272l-51 -270h-273zM963 1657l51 270h272l-51 -270 h-272z" />
<glyph unicode="&#xdd;" horiz-adv-x="1269" d="M225 1513h303l205 -696l465 696h303l-674 -954l-104 -559h-281l105 559zM723 1774l483 260l97 -203l-498 -238z" />
<glyph unicode="&#xde;" d="M78 0l280 1513h281l-53 -286h94q274 0 373 -70q141 -100 141 -293q0 -117 -49 -234.5t-131 -195.5q-94 -88 -194.5 -116.5t-317.5 -28.5h-90l-54 -289h-280zM461 557h82q176 0 270 55.5t94 184.5q0 90 -54 124.5t-222 34.5h-94z" />
<glyph unicode="&#xdf;" horiz-adv-x="1228" d="M43 0l184 997q45 248 192.5 395.5t362.5 147.5q166 0 270.5 -95t104.5 -247q0 -252 -213 -360q281 -74 281 -306q0 -229 -171 -394t-401 -165q-258 0 -329 189l-31 -162h-250zM387 387h168q23 -164 164 -164q90 0 157.5 72t67.5 168q0 98 -69.5 140t-272.5 42h-22l45 242 h22q94 0 162 78.5t68 187.5q0 63 -39 100t-105 37q-178 0 -227 -260z" />
<glyph unicode="&#xe0;" horiz-adv-x="1351" d="M92 436q0 297 209 511t498 214q238 0 334 -178l26 152h250l-209 -1135h-250l27 147q-182 -174 -410 -174q-215 0 -345 127t-130 336zM373 492q0 -123 74.5 -196t201.5 -73q170 0 287 120t117 298q0 125 -74 197.5t-201 72.5q-164 0 -284.5 -125.5t-120.5 -293.5z M477 1473l172 202l387 -260l-149 -180z" />
<glyph unicode="&#xe1;" horiz-adv-x="1351" d="M92 436q0 297 209 511t498 214q238 0 334 -178l26 152h250l-209 -1135h-250l27 147q-182 -174 -410 -174q-215 0 -345 127t-130 336zM373 492q0 -123 74.5 -196t201.5 -73q170 0 287 120t117 298q0 125 -74 197.5t-201 72.5q-164 0 -284.5 -125.5t-120.5 -293.5z M655 1415l484 260l96 -202l-498 -238z" />
<glyph unicode="&#xe2;" horiz-adv-x="1351" d="M92 436q0 297 209 511t498 214q238 0 334 -178l26 152h250l-209 -1135h-250l27 147q-182 -174 -410 -174q-215 0 -345 127t-130 336zM373 492q0 -123 74.5 -196t201.5 -73q170 0 287 120t117 298q0 125 -74 197.5t-201 72.5q-164 0 -284.5 -125.5t-120.5 -293.5z M414 1292l354 283h219l244 -283h-297l-84 131l-135 -131h-301z" />
<glyph unicode="&#xe3;" horiz-adv-x="1351" d="M92 436q0 297 209 511t498 214q238 0 334 -178l26 152h250l-209 -1135h-250l27 147q-182 -174 -410 -174q-215 0 -345 127t-130 336zM373 492q0 -123 74.5 -196t201.5 -73q170 0 287 120t117 298q0 125 -74 197.5t-201 72.5q-164 0 -284.5 -125.5t-120.5 -293.5z M514 1468q41 43 97.5 71t101.5 28q25 0 115 -32t110 -32q43 0 69.5 11.5t96.5 60.5l70 -168q-92 -115 -222 -115q-14 0 -122.5 32t-124.5 32q-41 0 -113 -62z" />
<glyph unicode="&#xe4;" horiz-adv-x="1351" d="M92 436q0 297 209 511t498 214q238 0 334 -178l26 152h250l-209 -1135h-250l27 147q-182 -174 -410 -174q-215 0 -345 127t-130 336zM373 492q0 -123 74.5 -196t201.5 -73q170 0 287 120t117 298q0 125 -74 197.5t-201 72.5q-164 0 -284.5 -125.5t-120.5 -293.5z M461 1298l51 271h272l-51 -271h-272zM891 1298l51 271h272l-51 -271h-272z" />
<glyph unicode="&#xe5;" horiz-adv-x="1351" d="M92 436q0 297 209 511t498 214q238 0 334 -178l26 152h250l-209 -1135h-250l27 147q-182 -174 -410 -174q-215 0 -345 127t-130 336zM373 492q0 -123 74.5 -196t201.5 -73q170 0 287 120t117 298q0 125 -74 197.5t-201 72.5q-164 0 -284.5 -125.5t-120.5 -293.5z M616 1409q0 111 85 194t198 83q80 0 135.5 -53.5t55.5 -133.5q0 -111 -85 -193.5t-196 -82.5q-84 0 -138.5 52t-54.5 134zM770 1436q0 -25 20.5 -44.5t49.5 -19.5q37 0 66.5 30t29.5 66q0 27 -20.5 47.5t-47.5 20.5q-39 0 -68.5 -30.5t-29.5 -69.5z" />
<glyph unicode="&#xe6;" horiz-adv-x="2211" d="M94 442q0 287 212 503t493 216q113 0 186.5 -32.5t132.5 -106.5l21 113h250l-21 -113q156 139 377 139q199 0 331 -131t132 -330q0 -119 -56 -251h-876q12 -102 87 -164t189 -62q152 0 263 113h296q-90 -164 -251.5 -263.5t-337.5 -99.5q-113 0 -189 33t-131 117 l-24 -123h-250l24 123q-90 -84 -168.5 -117t-193.5 -33q-221 0 -358.5 130t-137.5 339zM375 492q0 -121 72.5 -195t193.5 -74q158 0 274.5 124t116.5 292q0 125 -77.5 198.5t-186.5 73.5q-162 0 -277.5 -123.5t-115.5 -295.5zM1307 690h622q-23 127 -86 174t-180 47 q-241 0 -356 -221z" />
<glyph unicode="&#xe7;" horiz-adv-x="1310" d="M96 457q0 279 217 491.5t500 212.5q195 0 329 -103.5t169 -301.5h-307q-47 156 -232 155q-162 0 -278.5 -120.5t-116.5 -288.5q0 -127 73.5 -203t194.5 -76q176 0 287 150h307q-100 -180 -250.5 -281.5t-333.5 -116.5l-63 -94q41 14 61 15q66 0 109 -47.5t43 -118.5 q0 -12 -4 -41q-16 -90 -81 -145.5t-153 -55.5q-80 0 -126 47t-46 125h125q14 -59 66 -59q37 0 68.5 33.5t31.5 74.5q0 31 -18.5 52.5t-46.5 21.5q-39 0 -89 -55l-96 53l115 194q-199 16 -327 151.5t-128 330.5z" />
<glyph unicode="&#xe8;" horiz-adv-x="1310" d="M94 457q0 279 218 491.5t503 212.5q213 0 349 -129t136 -332q0 -156 -40 -254h-879q0 -98 74.5 -160.5t191.5 -62.5q164 0 277 113h297q-92 -168 -256 -265.5t-357 -97.5q-227 0 -370.5 135.5t-143.5 348.5zM418 688h629q-12 223 -275 223q-119 0 -217 -61.5t-137 -161.5 zM494 1473l172 202l387 -260l-150 -180z" />
<glyph unicode="&#xe9;" horiz-adv-x="1310" d="M94 457q0 279 218 491.5t503 212.5q213 0 349 -129t136 -332q0 -156 -40 -254h-879q0 -98 74.5 -160.5t191.5 -62.5q164 0 277 113h297q-92 -168 -256 -265.5t-357 -97.5q-227 0 -370.5 135.5t-143.5 348.5zM418 688h629q-12 223 -275 223q-119 0 -217 -61.5t-137 -161.5 zM672 1415l483 260l96 -202l-497 -238z" />
<glyph unicode="&#xea;" horiz-adv-x="1310" d="M94 457q0 279 218 491.5t503 212.5q213 0 349 -129t136 -332q0 -156 -40 -254h-879q0 -98 74.5 -160.5t191.5 -62.5q164 0 277 113h297q-92 -168 -256 -265.5t-357 -97.5q-227 0 -370.5 135.5t-143.5 348.5zM418 688h629q-12 223 -275 223q-119 0 -217 -61.5t-137 -161.5 zM430 1292l354 283h220l243 -283h-297l-84 131l-135 -131h-301z" />
<glyph unicode="&#xeb;" horiz-adv-x="1310" d="M94 457q0 279 218 491.5t503 212.5q213 0 349 -129t136 -332q0 -156 -40 -254h-879q0 -98 74.5 -160.5t191.5 -62.5q164 0 277 113h297q-92 -168 -256 -265.5t-357 -97.5q-227 0 -370.5 135.5t-143.5 348.5zM418 688h629q-12 223 -275 223q-119 0 -217 -61.5t-137 -161.5 zM477 1298l51 271h273l-51 -271h-273zM907 1298l51 271h273l-51 -271h-273z" />
<glyph unicode="&#xec;" horiz-adv-x="491" d="M49 0l211 1135h272l-210 -1135h-273zM141 1473l172 202l387 -260l-149 -180z" />
<glyph unicode="&#xed;" horiz-adv-x="491" d="M49 0l211 1135h272l-210 -1135h-273zM195 1415l483 260l96 -202l-498 -238z" />
<glyph unicode="&#xee;" horiz-adv-x="491" d="M16 1292l355 283h219l244 -283h-297l-84 131l-136 -131h-301zM49 0l211 1135h272l-210 -1135h-273z" />
<glyph unicode="&#xef;" horiz-adv-x="491" d="M49 0l211 1135h272l-210 -1135h-273zM63 1298l52 271h272l-51 -271h-273zM494 1298l51 271h272l-51 -271h-272z" />
<glyph unicode="&#xf0;" horiz-adv-x="1310" d="M94 469q0 262 209 466t475 204q55 0 144 -33q-84 100 -154 160l-174 -68l-70 98l154 62l-33 31l-82 63l191 98q88 -66 137 -112l188 75l86 -90l-178 -73q166 -143 255 -310.5t89 -337.5q0 -289 -220 -509t-509 -220q-223 0 -365.5 139.5t-142.5 356.5zM375 498 q0 -119 78.5 -197t197.5 -78q156 0 278 126t122 284q0 121 -77 199.5t-194 78.5q-160 0 -282.5 -124.5t-122.5 -288.5z" />
<glyph unicode="&#xf1;" horiz-adv-x="1228" d="M49 0l211 1135h252l-20 -109q94 76 168.5 105.5t168.5 29.5q176 0 270.5 -87t94.5 -249q0 -82 -25 -217l-112 -608h-273l103 555q18 102 18 188q0 168 -172 168q-121 0 -196.5 -78.5t-116.5 -297.5l-98 -535h-273zM483 1468q41 43 97.5 71t101.5 28q27 0 117 -32t108 -32 q43 0 70 11.5t96 60.5l70 -168q-92 -115 -221 -115q-14 0 -123 32t-125 32q-41 0 -113 -62z" />
<glyph unicode="&#xf2;" horiz-adv-x="1310" d="M94 453q0 281 219 494.5t508 213.5q217 0 358.5 -139t141.5 -352q0 -274 -221 -485.5t-510 -211.5q-211 0 -353.5 137.5t-142.5 342.5zM375 500q0 -119 76.5 -198t193.5 -79q154 0 274.5 126t120.5 284q0 121 -75.5 199.5t-190.5 78.5q-156 0 -277.5 -124.5 t-121.5 -286.5zM500 1473l172 202l387 -260l-150 -180z" />
<glyph unicode="&#xf3;" horiz-adv-x="1310" d="M94 453q0 281 219 494.5t508 213.5q217 0 358.5 -139t141.5 -352q0 -274 -221 -485.5t-510 -211.5q-211 0 -353.5 137.5t-142.5 342.5zM375 500q0 -119 76.5 -198t193.5 -79q154 0 274.5 126t120.5 284q0 121 -75.5 199.5t-190.5 78.5q-156 0 -277.5 -124.5 t-121.5 -286.5zM678 1415l483 260l96 -202l-497 -238z" />
<glyph unicode="&#xf4;" horiz-adv-x="1310" d="M94 453q0 281 219 494.5t508 213.5q217 0 358.5 -139t141.5 -352q0 -274 -221 -485.5t-510 -211.5q-211 0 -353.5 137.5t-142.5 342.5zM375 500q0 -119 76.5 -198t193.5 -79q154 0 274.5 126t120.5 284q0 121 -75.5 199.5t-190.5 78.5q-156 0 -277.5 -124.5 t-121.5 -286.5zM436 1292l355 283h219l243 -283h-297l-84 131l-135 -131h-301z" />
<glyph unicode="&#xf5;" horiz-adv-x="1310" d="M94 453q0 281 219 494.5t508 213.5q217 0 358.5 -139t141.5 -352q0 -274 -221 -485.5t-510 -211.5q-211 0 -353.5 137.5t-142.5 342.5zM375 500q0 -119 76.5 -198t193.5 -79q154 0 274.5 126t120.5 284q0 121 -75.5 199.5t-190.5 78.5q-156 0 -277.5 -124.5 t-121.5 -286.5zM537 1468q41 43 97 71t101 28q25 0 115 -32t111 -32q43 0 69.5 11.5t95.5 60.5l70 -168q-92 -115 -221 -115q-14 0 -123 32t-125 32q-41 0 -113 -62z" />
<glyph unicode="&#xf6;" horiz-adv-x="1310" d="M94 453q0 281 219 494.5t508 213.5q217 0 358.5 -139t141.5 -352q0 -274 -221 -485.5t-510 -211.5q-211 0 -353.5 137.5t-142.5 342.5zM375 500q0 -119 76.5 -198t193.5 -79q154 0 274.5 126t120.5 284q0 121 -75.5 199.5t-190.5 78.5q-156 0 -277.5 -124.5 t-121.5 -286.5zM483 1298l52 271h272l-51 -271h-273zM913 1298l52 271h272l-51 -271h-273z" />
<glyph unicode="&#xf7;" horiz-adv-x="1228" d="M158 371v282h1007v-282h-1007zM530 133q0 55 39 93t92.5 38t92.5 -38t39 -93q0 -53 -39 -92t-92.5 -39t-92.5 39t-39 92zM530 891q0 53 39 92t92.5 39t92.5 -39t39 -92q0 -55 -39 -93t-92.5 -38t-92.5 38t-39 93z" />
<glyph unicode="&#xf8;" horiz-adv-x="1351" d="M94 -4l123 143q-117 145 -117 314q0 281 219.5 494.5t505.5 213.5q121 0 224 -47l133 156l149 -127l-123 -146q119 -141 119 -325q0 -270 -221 -484.5t-500 -214.5q-119 0 -233 50l-129 -154zM381 498q0 -66 29 -133l456 532q-57 14 -92 14q-152 0 -272.5 -126.5 t-120.5 -286.5zM559 238q39 -14 84 -15q158 0 281 124t123 284q0 94 -33 141z" />
<glyph unicode="&#xf9;" horiz-adv-x="1228" d="M119 311q0 82 24 215l113 609h272l-102 -555q-23 -117 -20 -197q0 -76 45 -118t122 -42q135 0 210 77t116 300l98 535h273l-211 -1135h-252l20 109q-164 -135 -356 -136q-166 0 -259 95.5t-93 242.5zM446 1473l172 202l388 -260l-150 -180z" />
<glyph unicode="&#xfa;" horiz-adv-x="1228" d="M119 311q0 82 24 215l113 609h272l-102 -555q-23 -117 -20 -197q0 -76 45 -118t122 -42q135 0 210 77t116 300l98 535h273l-211 -1135h-252l20 109q-164 -135 -356 -136q-166 0 -259 95.5t-93 242.5zM625 1415l483 260l96 -202l-497 -238z" />
<glyph unicode="&#xfb;" horiz-adv-x="1228" d="M119 311q0 82 24 215l113 609h272l-102 -555q-23 -117 -20 -197q0 -76 45 -118t122 -42q135 0 210 77t116 300l98 535h273l-211 -1135h-252l20 109q-164 -135 -356 -136q-166 0 -259 95.5t-93 242.5zM383 1292l354 283h219l244 -283h-297l-84 131l-135 -131h-301z" />
<glyph unicode="&#xfc;" horiz-adv-x="1228" d="M119 311q0 82 24 215l113 609h272l-102 -555q-23 -117 -20 -197q0 -76 45 -118t122 -42q135 0 210 77t116 300l98 535h273l-211 -1135h-252l20 109q-164 -135 -356 -136q-166 0 -259 95.5t-93 242.5zM430 1298l51 271h273l-52 -271h-272zM860 1298l51 271h273l-51 -271 h-273z" />
<glyph unicode="&#xfd;" horiz-adv-x="1187" d="M88 -379l299 485l-225 1029h311l115 -736l411 736h314l-932 -1514h-293zM598 1415l483 260l97 -202l-498 -238z" />
<glyph unicode="&#xfe;" horiz-adv-x="1351" d="M-20 -379l350 1892h250l-95 -512q72 76 178.5 118t221.5 42q207 0 338 -124t131 -332q0 -301 -202 -516.5t-486 -215.5q-203 0 -324 133l-90 -485h-272zM403 494q0 -117 79 -194t200 -77q152 0 271.5 126t119.5 284q0 119 -72.5 198.5t-195.5 79.5q-162 0 -282 -124.5 t-120 -292.5z" />
<glyph unicode="&#xff;" horiz-adv-x="1187" d="M88 -379l299 485l-225 1029h311l115 -736l411 736h314l-932 -1514h-293zM403 1298l52 271h272l-51 -271h-273zM834 1298l51 271h272l-51 -271h-272z" />
<glyph unicode="&#x152;" horiz-adv-x="2170" d="M143 594q0 250 127 468t342 348t459 130q315 0 445 -197l30 170h729l-49 -270h-444l-68 -352h422l-49 -270h-422l-66 -351h445l-49 -270h-729l30 168q-94 -90 -228 -142.5t-273 -52.5q-287 0 -469.5 173.5t-182.5 447.5zM430 651q0 -178 112.5 -291.5t295.5 -113.5 q240 0 412.5 182t172.5 434q0 182 -109.5 294t-287.5 112q-242 0 -419 -188.5t-177 -428.5z" />
<glyph unicode="&#x153;" horiz-adv-x="2211" d="M94 455q0 279 214 492.5t495 213.5q147 0 245.5 -54t172.5 -173q127 123 238.5 175t246.5 52q219 0 357.5 -126t138.5 -324q0 -102 -48 -265h-878q14 -106 90 -164.5t182 -58.5q72 0 146.5 31t122.5 80h288q-61 -145 -240 -253t-362 -108q-143 0 -253.5 61.5 t-164.5 170.5q-201 -231 -493 -232q-221 0 -359.5 133.5t-138.5 348.5zM375 498q0 -119 76.5 -197t193.5 -78q166 0 280.5 128t114.5 286q0 123 -73.5 198.5t-194.5 75.5q-160 0 -278.5 -122.5t-118.5 -290.5zM1309 688h618q-16 115 -80.5 169t-183.5 54q-231 0 -354 -223z " />
<glyph unicode="&#x178;" horiz-adv-x="1269" d="M225 1513h303l205 -696l465 696h303l-674 -954l-104 -559h-281l105 559zM526 1657l52 270h272l-51 -270h-273zM956 1657l52 270h272l-51 -270h-273z" />
<glyph unicode="&#x2c6;" horiz-adv-x="1105" d="M322 1292l354 283h219l244 -283h-297l-84 131l-135 -131h-301z" />
<glyph unicode="&#x2dc;" horiz-adv-x="983" d="M360 1468q41 43 97.5 71t101.5 28q27 0 117 -32t108 -32q43 0 70 11.5t96 60.5l70 -168q-92 -115 -221 -115q-14 0 -123 32t-125 32q-41 0 -113 -62z" />
<glyph unicode="&#x2000;" horiz-adv-x="1024" />
<glyph unicode="&#x2001;" horiz-adv-x="2050" />
<glyph unicode="&#x2002;" horiz-adv-x="1024" />
<glyph unicode="&#x2003;" horiz-adv-x="2050" />
<glyph unicode="&#x2004;" horiz-adv-x="681" />
<glyph unicode="&#x2005;" horiz-adv-x="512" />
<glyph unicode="&#x2006;" horiz-adv-x="339" />
<glyph unicode="&#x2007;" horiz-adv-x="339" />
<glyph unicode="&#x2008;" horiz-adv-x="256" />
<glyph unicode="&#x2009;" horiz-adv-x="409" />
<glyph unicode="&#x200a;" horiz-adv-x="112" />
<glyph unicode="&#x2010;" horiz-adv-x="860" d="M188 469l45 242h568l-45 -242h-568z" />
<glyph unicode="&#x2011;" horiz-adv-x="860" d="M188 469l45 242h568l-45 -242h-568z" />
<glyph unicode="&#x2012;" horiz-adv-x="860" d="M188 469l45 242h568l-45 -242h-568z" />
<glyph unicode="&#x2013;" horiz-adv-x="1024" d="M37 469l45 242h1024l-45 -242h-1024z" />
<glyph unicode="&#x2014;" horiz-adv-x="2048" d="M37 469l45 242h2048l-45 -242h-2048z" />
<glyph unicode="&#x2018;" horiz-adv-x="573" d="M268 954l54 287q14 119 103 194.5t216 77.5l-27 -137q-76 -16 -107.5 -51t-39.5 -108h119l-49 -263h-269z" />
<glyph unicode="&#x2019;" horiz-adv-x="573" d="M264 954l25 138q137 18 149 159h-119l50 262h270l-53 -286q-8 -115 -102.5 -194t-219.5 -79z" />
<glyph unicode="&#x201a;" horiz-adv-x="573" d="M33 -287l24 137q141 20 148 150h-119l49 262h271l-52 -276q-25 -125 -109.5 -199t-189.5 -74h-22z" />
<glyph unicode="&#x201c;" horiz-adv-x="983" d="M264 954l53 287q14 119 103.5 194.5t216.5 77.5l-27 -137q-76 -16 -107.5 -51t-39.5 -108h119l-50 -263h-268zM688 954l53 287q14 119 103.5 194.5t216.5 77.5l-27 -137q-76 -16 -107.5 -51t-39.5 -108h119l-50 -263h-268z" />
<glyph unicode="&#x201d;" horiz-adv-x="983" d="M260 954l25 138q137 18 149 159h-119l50 262h270l-53 -286q-10 -115 -104.5 -195t-217.5 -78zM684 954l25 138q137 18 149 159h-119l49 262h271l-53 -286q-10 -115 -104.5 -195t-217.5 -78z" />
<glyph unicode="&#x201e;" horiz-adv-x="983" d="M31 -297l24 137q137 18 150 160h-119l49 262h271l-54 -287q-20 -117 -110 -194.5t-211 -77.5zM455 -297l24 137q137 18 150 160h-119l49 262h270l-53 -287q-16 -115 -107 -193.5t-214 -78.5z" />
<glyph unicode="&#x2022;" horiz-adv-x="1228" d="M328 647.5q0 145.5 103.5 247.5t248.5 102q143 0 246.5 -103t103.5 -247q0 -147 -103.5 -249.5t-250.5 -102.5q-143 0 -245.5 103.5t-102.5 249z" />
<glyph unicode="&#x2026;" horiz-adv-x="2048" d="M143 0l50 262h274l-49 -262h-275zM825 0l49 262h275l-49 -262h-275zM1507 0l49 262h275l-49 -262h-275z" />
<glyph unicode="&#x202f;" horiz-adv-x="409" />
<glyph unicode="&#x2039;" horiz-adv-x="491" d="M113 489l39 205l333 267l-47 -252l-159 -117l116 -119l-47 -252z" />
<glyph unicode="&#x203a;" horiz-adv-x="491" d="M139 221l47 252l162 119l-119 117l47 252l236 -267l-39 -205z" />
<glyph unicode="&#x205f;" horiz-adv-x="512" />
<glyph unicode="&#x20ac;" d="M-129 532l84 181h139q12 68 19 92h-193l82 180h162q121 291 298 422t431 131q125 0 217 -29.5t207 -107.5l-121 -211q-180 121 -346 121q-143 0 -238.5 -75t-177.5 -251h645l-102 -180h-590l-18 -92h557l-103 -181h-477q12 -152 88 -234.5t217 -82.5q98 0 318 82 l-47 -252q-178 -68 -340 -68q-182 0 -320 95q-94 66 -136 170t-48 290h-207z" />
<glyph unicode="&#x2122;" horiz-adv-x="2095" d="M403 1317l35 196h586l-37 -196h-182l-127 -688h-223l127 688h-179zM985 629l164 884h283l135 -600l356 600h283l-164 -884h-223l98 538l-318 -538h-174l-116 538l-101 -538h-223z" />
<glyph unicode="&#xe000;" horiz-adv-x="1135" d="M0 1135h1135v-1135h-1135v1135z" />
<glyph unicode="&#xfb01;" horiz-adv-x="1064" d="M55 0l164 887h-98l43 227h98q53 203 171 301t272 98q35 0 79 -4l-49 -258h-37q-145 0 -163 -137h159l-43 -227h-159l-164 -887h-273zM623 0l211 1135h272l-211 -1135h-272zM862 1298l51 271h273l-51 -271h-273z" />
<glyph unicode="&#xfb02;" horiz-adv-x="1064" d="M55 0l164 887h-98l43 227h98q53 203 171 301t272 98q35 0 79 -4l-49 -258h-37q-145 0 -163 -137h159l-43 -227h-159l-164 -887h-273zM623 0l280 1513h273l-281 -1513h-272z" />
<glyph unicode="&#xfb03;" horiz-adv-x="1632" d="M55 0l164 887h-98l43 227h98q53 203 171 301t272 98q35 0 79 -4l-49 -258h-37q-145 0 -163 -137h294q53 203 171 301t272 98q35 0 80 -4l-49 -258h-37q-145 0 -164 -137h160l-43 -227h-160l-164 -887h-272l163 887h-294l-164 -887h-273zM1190 0l211 1135h272l-211 -1135 h-272zM1430 1298l51 271h272l-51 -271h-272z" />
<glyph unicode="&#xfb04;" horiz-adv-x="1632" d="M55 0l164 887h-98l43 227h98q53 203 171 301t272 98q35 0 79 -4l-49 -258h-37q-145 0 -163 -137h294q53 203 171 301t272 98q35 0 80 -4l-49 -258h-37q-145 0 -164 -137h160l-43 -227h-160l-164 -887h-272l163 887h-294l-164 -887h-273zM1190 0l280 1513h273l-281 -1513 h-272z" />
</font>
</defs>
</svg>
