<?xml version="1.0" standalone="no"?>
<!DOCTYPE svg PUBLIC "-//W3C//DTD SVG 1.1//EN" "http://www.w3.org/Graphics/SVG/1.1/DTD/svg11.dtd" >
<svg xmlns="http://www.w3.org/2000/svg">
<metadata>
This is a custom SVG webfont generated by Font Squirrel.
Copyright   : Copyright URW copyright 1999 by URW Design  Development Cyrillic glyphs added by Valek Filippov copyright 20012002 Vietnamese characters were added by Han The Thanh copyright 2006 2008 for TeX Gyre extensions by B Jackowski and JM Nowacki on behalf of TeX users groups This work is released under the GUST Font License   see httptugorgfontslicensesGUSTFONTLICENSEtxt for details
</metadata>
<defs>
<font id="webfontXBQs7V8x" horiz-adv-x="1146" >
<font-face units-per-em="2048" ascent="1669" descent="-379" />
<missing-glyph horiz-adv-x="573" />
<glyph unicode=" "  horiz-adv-x="573" />
<glyph unicode="&#x09;" horiz-adv-x="573" />
<glyph unicode="&#xa0;" horiz-adv-x="573" />
<glyph unicode="!" horiz-adv-x="573" d="M147 0v262h273v-262h-273zM147 385v1128h273v-1128h-273z" />
<glyph unicode="&#x22;" horiz-adv-x="737" d="M152 1051v462h155v-462h-155zM424 1051v462h156v-462h-156z" />
<glyph unicode="#" d="M70 477v205h225l24 182h-196v203h225l60 446h184l-60 -446h179l59 446h184l-59 -446h182v-203h-211l-24 -182h182v-205h-209l-65 -477h-185l66 477h-178l-64 -477h-186l65 477h-198zM479 682h178l25 182h-176z" />
<glyph unicode="$" d="M121 483v27h274q4 -80 51.5 -128t121 -48t122.5 49t49 121q0 92 -80 143q-45 29 -215 92q-264 96 -264 369q0 139 68.5 240.5t202.5 132.5v272h260v-272q104 -20 177 -120.5t77 -232.5h-258q-25 127 -134 127q-53 0 -86.5 -36.5t-33.5 -94.5q0 -72 42 -110.5t191 -93.5 q188 -66 257 -153t69 -253q0 -158 -79 -269.5t-222 -150.5v-270h-260v270q-154 43 -242 149.5t-88 239.5z" />
<glyph unicode="%" horiz-adv-x="1761" d="M43 1169q0 156 108.5 263.5t264.5 107.5q150 0 259 -108.5t109 -260.5q0 -154 -108.5 -262t-262 -108t-262 108t-108.5 260zM264 1171.5q0 -63.5 44 -107.5t105.5 -44t106.5 45t45 106.5t-45 106.5t-106.5 45t-105.5 -44t-44 -107.5zM457 0l624 1513h211l-626 -1513h-209 zM969 342q0 156 108.5 263.5t263.5 107.5q150 0 259.5 -108.5t109.5 -260.5q0 -154 -108.5 -262.5t-262 -108.5t-262 108.5t-108.5 260.5zM1190 344.5q0 -63.5 44 -107.5t105.5 -44t106.5 45t45 106.5t-45 106.5t-106.5 45t-105.5 -44t-44 -107.5z" />
<glyph unicode="&#x26;" horiz-adv-x="1392" d="M72 457q0 137 67.5 239.5t214.5 190.5q-74 84 -100.5 141t-26.5 137q0 158 111 266.5t272 108.5q166 0 277.5 -106.5t111.5 -266.5q0 -123 -51 -203.5t-186 -166.5l137 -154l148 244h305l-262 -449l270 -288l-195 -177l-215 228q-96 -129 -180 -178.5t-205 -49.5 q-207 0 -350 140.5t-143 343.5zM344 440q0 -84 58.5 -140t146.5 -56q68 0 115 34.5t98 127.5l-236 253q-182 -82 -182 -219zM487 1161q0 -41 22.5 -80t82.5 -96q86 47 116.5 82t30.5 92q0 55 -34.5 90t-90.5 35q-53 0 -90 -36t-37 -87z" />
<glyph unicode="'" horiz-adv-x="450" d="M152 1051v462h155v-462h-155z" />
<glyph unicode="(" horiz-adv-x="778" d="M152 614q0 303 152.5 548t410.5 351v-294q-287 -221 -287 -605q0 -180 81 -348t206 -250v-297q-248 88 -405.5 345t-157.5 550z" />
<glyph unicode=")" horiz-adv-x="778" d="M76 14q287 221 286 604q0 180 -80.5 348.5t-205.5 250.5v296q248 -88 405.5 -346t157.5 -549q0 -303 -152.5 -547.5t-410.5 -351.5v295z" />
<glyph unicode="*" horiz-adv-x="901" d="M143 1135v145l203 -10l-108 176l129 65l90 -176l94 178l121 -73l-111 -170l199 12v-147l-199 10l109 -164l-117 -78l-96 180l-88 -180l-131 64l106 182z" />
<glyph unicode="+" horiz-adv-x="1228" d="M111 371v282h362v363h283v-363h362v-282h-362v-363h-283v363h-362z" />
<glyph unicode="," horiz-adv-x="573" d="M147 0v262h273v-276q0 -123 -70.5 -198t-202.5 -75v137q66 12 93.5 39t27.5 76q0 23 -2 35h-119z" />
<glyph unicode="-" horiz-adv-x="860" d="M152 469v242h567v-242h-567z" />
<glyph unicode="." horiz-adv-x="573" d="M147 0v262h273v-262h-273z" />
<glyph unicode="/" horiz-adv-x="942" d="M53 -262l662 1775h192l-661 -1775h-193z" />
<glyph unicode="0" d="M61 506v514q0 240 137.5 380t370.5 140q229 0 367.5 -137t138.5 -369v-528q0 -252 -134 -392.5t-359 -140.5q-238 0 -379.5 140.5t-141.5 392.5zM334 514q0 -141 61.5 -216t177.5 -75q229 0 230 285v512q0 131 -60.5 200.5t-171 69.5t-174 -72.5t-63.5 -197.5v-506z" />
<glyph unicode="1" d="M313 1257v256h463v-1513h-272v1257h-191z" />
<glyph unicode="2" d="M70 991q0 256 139 402.5t362 146.5q211 0 352.5 -141.5t141.5 -349.5q0 -141 -61.5 -250t-231.5 -262l-309 -281h596v-256h-979v240l538 510q174 166 175 303q0 102 -62.5 169.5t-157.5 67.5q-106 0 -170.5 -82t-64.5 -217h-268z" />
<glyph unicode="3" d="M31 459h274q14 -106 81 -171t165 -65q102 0 169.5 72t67.5 180q0 115 -80.5 184.5t-215.5 69.5h-46v262q127 2 180.5 39t53.5 117q0 63 -37 103t-96 40q-109 0 -127 -137h-277q14 186 126 286.5t276 100.5q176 0 291.5 -116.5t115.5 -290.5q0 -168 -127 -261 q236 -104 236 -391q0 -219 -144.5 -363.5t-363.5 -144.5q-217 0 -363.5 136.5t-158.5 349.5z" />
<glyph unicode="4" d="M0 227v222l696 1064h230v-1042h159v-244h-159v-227h-273v227h-653zM276 471h377v584z" />
<glyph unicode="5" d="M25 453h272q20 -111 83.5 -170.5t162.5 -59.5q111 0 180.5 78t69.5 201q0 115 -71 192.5t-175 77.5q-119 0 -211 -115l-242 66l142 790h684v-256h-480l-49 -278q102 43 195 43q207 0 343 -146.5t136 -369.5q0 -227 -147.5 -380t-366.5 -153q-205 0 -360.5 137.5 t-165.5 342.5z" />
<glyph unicode="6" d="M43 496q0 109 34 205t116 219l395 593h325l-362 -538q61 20 123 20q180 0 299 -136t119 -343q0 -236 -146.5 -389.5t-372.5 -153.5q-229 0 -379.5 149t-150.5 374zM315 489q0 -117 73 -191.5t185 -74.5q109 0 177.5 74t68.5 192q0 117 -70.5 193t-179.5 76 q-113 0 -183.5 -74t-70.5 -195z" />
<glyph unicode="7" d="M133 1257v256h891v-256l-553 -1257h-307l573 1257h-604z" />
<glyph unicode="8" d="M63 473q0 248 218 369q-70 76 -97.5 137t-27.5 145q0 174 120.5 295t294.5 121q178 0 296 -117.5t118 -294.5q0 -184 -127 -286q113 -68 163 -154t50 -213q0 -215 -143.5 -358.5t-358.5 -143.5q-213 0 -359.5 144.5t-146.5 355.5zM336 463q0 -102 67.5 -171t167.5 -69 q96 0 162 68.5t66 169.5q0 98 -66.5 167.5t-161.5 69.5q-98 0 -166.5 -67.5t-68.5 -167.5zM416 1124q0 -68 46 -115.5t109.5 -47.5t108.5 48t45 117.5t-44 116.5t-108 47q-68 0 -112.5 -47t-44.5 -119z" />
<glyph unicode="9" d="M45 997q0 238 145.5 390.5t368.5 152.5q229 0 380 -149.5t151 -374.5q0 -109 -34 -205t-116 -217l-395 -594h-326l365 539q-66 -25 -123 -25q-176 0 -296 139t-120 344zM317 1024q0 -117 70 -192.5t178 -75.5q113 0 182.5 74.5t69.5 193.5q0 117 -72.5 191.5t-185.5 74.5 q-106 0 -174 -74.5t-68 -191.5z" />
<glyph unicode=":" horiz-adv-x="573" d="M147 0v262h273v-262h-273zM147 756v272h273v-272h-273z" />
<glyph unicode=";" horiz-adv-x="573" d="M147 0v262h273v-276q0 -125 -74 -199t-199 -74v137q66 12 93.5 39t27.5 76v35h-121zM147 756v272h273v-272h-273z" />
<glyph unicode="&#x3c;" horiz-adv-x="1228" d="M133 401v222l875 692v-361l-559 -442l559 -442v-361z" />
<glyph unicode="=" horiz-adv-x="1228" d="M111 182v283h1007v-283h-1007zM111 559v283h1007v-283h-1007z" />
<glyph unicode="&#x3e;" horiz-adv-x="1228" d="M133 70l559 442l-559 442v361l875 -692v-222l-875 -692v361z" />
<glyph unicode="?" d="M66 1065q18 229 147 352t319 123q197 0 329 -134t132 -335q0 -102 -46 -183t-163 -183q-84 -74 -107.5 -131.5t-25.5 -190.5h-272q0 193 48 295t202 227q92 78 92 174q0 82 -55.5 136.5t-139.5 54.5q-162 0 -188 -205h-272zM379 0v262h272v-262h-272z" />
<glyph unicode="@" horiz-adv-x="1515" d="M6 772q0 340 226.5 568.5t562.5 228.5q328 0 529.5 -206t201.5 -550q0 -221 -121 -359.5t-311 -138.5q-164 0 -203 111q-74 -111 -232 -111q-154 0 -245.5 105.5t-91.5 286.5q0 203 118.5 339t294.5 136q84 0 137.5 -27t104.5 -92l14 111h197l-68 -605q-2 -10 -2 -30 q0 -53 56 -54q82 0 142 107.5t60 253.5q0 256 -159.5 415.5t-417.5 159.5q-279 0 -463 -186t-184 -469q0 -268 183 -455.5t486 -187.5q176 0 305 96l95 -123q-158 -123 -404 -123q-350 0 -580.5 227.5t-230.5 571.5zM567 727q0 -90 43 -142.5t117 -52.5q90 0 147.5 66 t57.5 168q0 86 -42 136t-114 50q-86 0 -147.5 -65.5t-61.5 -159.5z" />
<glyph unicode="A" horiz-adv-x="1515" d="M14 0l631 1513h221l635 -1513h-309l-162 391h-538l-168 -391h-310zM594 659h324l-162 459z" />
<glyph unicode="B" horiz-adv-x="1187" d="M139 0v1513h312q170 0 256 -15t153 -58q172 -111 172 -330q0 -106 -39 -172t-129 -113q141 -59 199.5 -147t58.5 -227q0 -213 -146.5 -332t-432.5 -119h-404zM420 268h139q147 0 214 45t67 144q0 199 -287 198h-133v-387zM420 930h90q127 0 184.5 37t57.5 118 q0 154 -217 154h-115v-309z" />
<glyph unicode="C" horiz-adv-x="1597" d="M61 762q0 322 228.5 550t550.5 228q236 0 427 -122t289 -339h-313q-78 100 -172 145.5t-225 45.5q-215 0 -358.5 -147.5t-143.5 -362.5q0 -213 149.5 -364.5t358.5 -151.5q111 0 197 41t178 137h329q-88 -207 -277 -328t-421 -121q-332 0 -564.5 230.5t-232.5 558.5z" />
<glyph unicode="D" horiz-adv-x="1433" d="M139 0v1513h346q356 0 537 -108q158 -94 244 -265t86 -386q0 -229 -98.5 -406.5t-272.5 -263.5q-168 -84 -489 -84h-353zM420 268h61q248 0 369 68q100 55 159.5 167.5t59.5 250.5q0 145 -61.5 259.5t-169.5 170.5q-121 61 -363 61h-55v-977z" />
<glyph unicode="E" horiz-adv-x="1064" d="M139 0v1513h813v-268h-532v-356h510v-268h-510v-353h532v-268h-813z" />
<glyph unicode="F" horiz-adv-x="983" d="M139 0v1513h770v-268h-489v-356h467v-268h-467v-621h-281z" />
<glyph unicode="G" horiz-adv-x="1720" d="M61 760q0 326 232.5 553t564.5 227q248 0 457 -133t282 -338h-329q-143 201 -416 201q-221 0 -364.5 -148.5t-143.5 -365.5t150.5 -364.5t373.5 -147.5q150 0 266.5 69.5t178.5 196.5h-627v262h989v-37q0 -311 -229 -536.5t-561 -225.5q-348 0 -586 227.5t-238 559.5z " />
<glyph unicode="H" horiz-adv-x="1392" d="M139 0v1513h281v-610h541v610h280v-1513h-280v635h-541v-635h-281z" />
<glyph unicode="I" horiz-adv-x="573" d="M139 0v1513h281v-1513h-281z" />
<glyph unicode="J" horiz-adv-x="983" d="M18 358h281q29 -115 133 -114q135 0 135 198v1071h281v-1079q0 -213 -109.5 -337t-300.5 -124q-170 0 -286 99.5t-134 285.5z" />
<glyph unicode="K" horiz-adv-x="1269" d="M139 0v1513h281v-653l469 653h338l-570 -743l570 -770h-338l-469 666v-666h-281z" />
<glyph unicode="L" horiz-adv-x="901" d="M139 0v1513h281v-1245h463v-268h-744z" />
<glyph unicode="M" horiz-adv-x="1843" d="M139 0v1513h385l408 -1146l403 1146h385v-1513h-280v1135l-396 -1135h-229l-395 1135v-1135h-281z" />
<glyph unicode="N" horiz-adv-x="1515" d="M139 0v1513h320l626 -1101v1101h281v-1513h-313l-633 1100v-1100h-281z" />
<glyph unicode="O" horiz-adv-x="1720" d="M61 756q0 332 230.5 558t568.5 226q324 0 551 -229.5t227 -552.5q0 -332 -225 -558.5t-555 -226.5q-334 0 -565.5 227.5t-231.5 555.5zM344 756q0 -215 148.5 -363.5t363.5 -148.5t357.5 145.5t142.5 364.5q0 217 -144.5 366.5t-355.5 149.5q-219 0 -365.5 -147.5 t-146.5 -366.5z" />
<glyph unicode="P" d="M139 0v1513h375q270 0 387 -69q205 -125 205 -397q0 -131 -53.5 -239t-145.5 -165q-63 -39 -149 -53.5t-248 -14.5h-90v-575h-281zM420 844h82q182 0 251.5 48t69.5 150q0 117 -70.5 160t-238.5 43h-94v-401z" />
<glyph unicode="Q" horiz-adv-x="1720" d="M61 758q0 330 233.5 556t573.5 226q344 0 572.5 -225t228.5 -565q0 -297 -182 -486q88 -45 139 -45q27 0 70 6v-254q-16 -2 -54 -2q-96 0 -168.5 28t-173.5 95q-172 -119 -419 -119q-342 0 -581 228.5t-239 556.5zM342 756q0 -35 4 -72q100 27 234 27q180 0 362 -78 t322 -215q123 127 122 327q0 225 -148 375t-374 150q-223 0 -372.5 -147.5t-149.5 -366.5zM432 465q168 -221 449 -221q96 0 182 39q-248 199 -485 198q-58 0 -146 -16z" />
<glyph unicode="R" horiz-adv-x="1187" d="M139 0v1513h436q156 0 248 -24.5t166 -87.5q160 -135 160 -373q0 -371 -395 -469l409 -559h-346l-397 580v-580h-281zM420 791h137q162 0 235.5 54t73.5 175q0 113 -67.5 169t-253.5 56h-125v-454z" />
<glyph unicode="S" horiz-adv-x="1064" d="M29 432h293q18 -188 204 -188q90 0 147.5 51t57.5 133q0 100 -69 154q-33 25 -70 41t-193 75q-152 57 -233.5 163t-81.5 249q0 180 129 305t311 125q186 0 312.5 -116.5t136.5 -313.5h-291q-6 78 -47 119t-113 41q-70 0 -112.5 -43t-42.5 -111q0 -84 84 -137 q23 -14 167 -68q221 -82 306.5 -186t85.5 -266q0 -205 -139.5 -345.5t-344.5 -140.5q-203 0 -341 124t-156 335z" />
<glyph unicode="T" horiz-adv-x="860" d="M14 1245v268h842v-268h-281v-1245h-280v1245h-281z" />
<glyph unicode="U" horiz-adv-x="1310" d="M139 555v958h281v-958q0 -168 58.5 -239.5t172.5 -71.5q113 0 171.5 70.5t58.5 240.5v958h280v-958q0 -283 -140 -432.5t-372 -149.5q-229 0 -369.5 150.5t-140.5 431.5z" />
<glyph unicode="V" horiz-adv-x="1433" d="M16 1513h295l408 -1151l407 1151h295l-585 -1513h-230z" />
<glyph unicode="W" horiz-adv-x="1843" d="M14 1513h287l266 -1056l258 1056h205l254 -1056l268 1056h287l-442 -1513h-223l-244 1001l-250 -1001h-221z" />
<glyph unicode="X" horiz-adv-x="1392" d="M10 0l520 754l-520 759h334l352 -528l363 528h325l-524 -759l524 -754h-325l-363 522l-352 -522h-334z" />
<glyph unicode="Y" horiz-adv-x="1269" d="M6 1513h303l336 -696l334 696h303l-498 -954v-559h-280v559z" />
<glyph unicode="Z" horiz-adv-x="1024" d="M37 0v238l573 1007h-542v268h876v-251l-569 -994h608v-268h-946z" />
<glyph unicode="[" horiz-adv-x="655" d="M152 383v530q0 236 103 383.5t343 216.5v-301q-104 -45 -137 -123.5t-33 -230.5v-522q0 -125 36 -202t134 -114v-301q-446 103 -446 664z" />
<glyph unicode="\" horiz-adv-x="1310" d="M172 1513h193l665 -1513h-192z" />
<glyph unicode="]" horiz-adv-x="655" d="M76 20q104 43 137 123t33 232v522q0 125 -36 199.5t-134 115.5v301q446 -100 446 -663v-531q0 -236 -103.5 -383t-342.5 -217v301z" />
<glyph unicode="^" horiz-adv-x="1228" d="M129 743l367 770h249l367 -770l-213 -102l-278 565l-279 -565z" />
<glyph unicode="_" horiz-adv-x="1024" d="M0 -98h1024v-185h-1024v185z" />
<glyph unicode="`" horiz-adv-x="860" d="M51 1483l111 188l459 -274l-105 -160z" />
<glyph unicode="a" horiz-adv-x="1351" d="M61 563q0 260 163 429t415 169q236 0 371 -178v152h250v-1135h-250v147q-82 -92 -170 -133t-207 -41q-248 0 -410 167t-162 423zM336 557q0 -150 93 -242t243 -92q152 0 240.5 95.5t88.5 240.5q0 156 -94 254t-239.5 98t-238.5 -99t-93 -255z" />
<glyph unicode="b" horiz-adv-x="1351" d="M111 0v1513h272v-483q78 78 160 112t192 34q244 0 408 -172.5t164 -428.5q0 -258 -157 -430t-396 -172q-127 0 -216 39t-178 133v-145h-249zM367 575q0 -156 94 -254t241 -98q145 0 237.5 97.5t92.5 252.5q0 152 -95 252.5t-241 100.5q-143 0 -236 -98.5t-93 -252.5z" />
<glyph unicode="c" horiz-adv-x="1310" d="M61 567q0 250 173.5 422t424.5 172q197 0 351.5 -106.5t220.5 -298.5h-307q-82 156 -265 155q-141 0 -232 -96t-91 -245.5t94 -248t236 -98.5q162 0 258 150h307q-72 -190 -218.5 -295t-344.5 -105q-252 0 -429.5 173t-177.5 421z" />
<glyph unicode="d" horiz-adv-x="1351" d="M61 569q0 254 165 430.5t403 176.5q225 0 354 -142v479h272v-1513h-249v147q-154 -174 -375 -174q-242 0 -406 172t-164 424zM336 582q0 -152 97 -255.5t241 -103.5q139 0 234.5 101.5t95.5 248.5q0 150 -96.5 251.5t-239.5 101.5q-139 0 -235.5 -99.5t-96.5 -244.5z" />
<glyph unicode="e" horiz-adv-x="1310" d="M61 563q0 250 174.5 424t423.5 174q254 0 420 -173t166 -437q0 -55 -10 -105h-879q25 -102 109 -162.5t205 -60.5q84 0 140 25.5t110 87.5h297q-55 -168 -208 -265.5t-333 -97.5q-260 0 -437.5 170t-177.5 420zM348 686h629q-27 109 -108 167t-205 58q-248 0 -316 -225z " />
<glyph unicode="f" horiz-adv-x="573" d="M20 887v227h99q41 399 375 399q35 0 67 -4v-258h-26q-80 0 -111 -29.5t-33 -107.5h154v-227h-154v-887h-272v887h-99z" />
<glyph unicode="g" horiz-adv-x="1351" d="M61 575q0 252 159 419t401 167q246 0 370 -170v144h260v-920q0 -668 -587 -668q-209 0 -361.5 95.5t-222.5 265.5h309q59 -66 124 -93.5t161 -27.5q303 0 317 363q-80 -94 -167 -135.5t-206 -41.5q-244 0 -400.5 170t-156.5 432zM336 563q0 -156 87 -248t232.5 -92 t234.5 93.5t89 246.5q0 156 -91 252t-237 96q-143 0 -229 -95t-86 -253z" />
<glyph unicode="h" horiz-adv-x="1228" d="M111 0v1513h272v-456q119 106 289 106q444 0 444 -522v-641h-272v580q0 178 -51.5 254.5t-169.5 76.5q-121 0 -180.5 -76.5t-59.5 -259.5v-575h-272z" />
<glyph unicode="i" horiz-adv-x="491" d="M111 0v1135h272v-1135h-272zM113 1298v273h272v-273h-272z" />
<glyph unicode="j" horiz-adv-x="532" d="M35 -115q76 14 94 45t18 152v1053h273v-1059q0 -223 -103.5 -339t-281.5 -116v264zM150 1298v273h272v-273h-272z" />
<glyph unicode="k" horiz-adv-x="1187" d="M111 0v1513h272v-913l362 535h326l-405 -555l471 -580h-367l-387 530v-530h-272z" />
<glyph unicode="l" horiz-adv-x="491" d="M111 0v1513h272v-1513h-272z" />
<glyph unicode="m" horiz-adv-x="1925" d="M111 0v1135h249v-107q59 72 127 102.5t168 30.5q223 0 334 -176q133 176 365 176q459 0 458 -506v-655h-272v623q0 160 -54 224t-159 64q-119 0 -174 -77.5t-55 -274.5v-559h-273v623q0 160 -54 224t-167 64q-121 0 -171 -76.5t-50 -275.5v-559h-272z" />
<glyph unicode="n" horiz-adv-x="1228" d="M111 0v1135h251v-109q141 135 320 135q242 0 354 -164q45 -66 63.5 -151.5t18.5 -237.5v-608h-272v555q0 213 -52.5 284.5t-164.5 71.5q-135 0 -201 -104q-45 -72 -45 -272v-535h-272z" />
<glyph unicode="o" horiz-adv-x="1310" d="M61 567q0 244 176.5 419t424.5 175q256 0 431 -174t175 -428q0 -240 -178.5 -413t-425.5 -173q-250 0 -426.5 174t-176.5 420zM336 571q0 -145 96 -246.5t234 -101.5q135 0 231 100.5t96 243.5q0 141 -96 242.5t-233 101.5q-133 0 -230.5 -100.5t-97.5 -239.5z" />
<glyph unicode="p" horiz-adv-x="1351" d="M111 -379v1514h249v-134q137 160 373 160q246 0 405.5 -167t159.5 -423q0 -258 -160.5 -428t-406.5 -170q-201 0 -348 133v-485h-272zM367 569q0 -150 95 -248t240 -98q135 0 228.5 99.5t93.5 242.5q0 147 -93 246.5t-233 99.5q-141 0 -236 -98.5t-95 -243.5z" />
<glyph unicode="q" horiz-adv-x="1351" d="M61 571q0 246 167 418t405 172q242 0 368 -172v146h250v-1514h-272v488q-135 -135 -342 -136q-244 0 -410 172t-166 426zM336 565q0 -147 95 -244.5t239 -97.5q139 0 232 97.5t93 242.5q0 150 -92 249t-231 99q-145 0 -240.5 -98t-95.5 -248z" />
<glyph unicode="r" horiz-adv-x="655" d="M111 0v1135h249v-111q53 78 105.5 107.5t140.5 29.5h21v-262q-244 -6 -244 -268v-631h-272z" />
<glyph unicode="s" horiz-adv-x="901" d="M39 360h274q20 -72 56.5 -104.5t95.5 -32.5q53 0 88 32t35 79q0 51 -31 75.5t-162 69.5q-170 57 -242.5 134t-72.5 202q0 145 109.5 245.5t267.5 100.5q150 0 257 -92t115 -248h-266q-18 90 -106 90q-45 0 -75 -27.5t-30 -68.5q0 -45 27 -61.5t166 -61.5 q176 -55 245.5 -130t69.5 -202q0 -162 -117.5 -274.5t-287.5 -112.5q-174 0 -285 97t-131 290z" />
<glyph unicode="t" horiz-adv-x="614" d="M18 887v248h134v378h272v-378h164v-248h-164v-887h-272v887h-134z" />
<glyph unicode="u" horiz-adv-x="1228" d="M111 526v609h272v-555q0 -211 53 -284t162 -73q141 0 207 105q43 72 43 272v535h272v-1135h-252v109q-76 -76 -149.5 -106t-175.5 -30q-432 0 -432 553z" />
<glyph unicode="v" d="M2 1135h303l262 -752l258 752h308l-457 -1135h-217z" />
<glyph unicode="w" horiz-adv-x="1638" d="M20 1135h293l203 -693l191 693h217l186 -693l207 693h291l-410 -1135h-170l-215 735l-219 -735h-168z" />
<glyph unicode="x" d="M2 0l401 586l-348 549h307l205 -342l201 342h307l-346 -549l404 -586h-328l-238 389l-237 -389h-328z" />
<glyph unicode="y" horiz-adv-x="1187" d="M12 1135h312l251 -736l275 736h313l-655 -1514h-293l213 485z" />
<glyph unicode="z" horiz-adv-x="942" d="M41 0v244l500 647h-443v244h768v-244l-499 -647h538v-244h-864z" />
<glyph unicode="{" horiz-adv-x="696" d="M76 543v166q166 20 166 200v322q0 152 68.5 218.5t224.5 66.5q53 0 83 -3v-163q-109 -8 -135 -43t-26 -166v-252q0 -121 -41 -179.5t-144 -84.5q102 -25 143.5 -84.5t41.5 -178.5v-251q0 -131 26.5 -166t134.5 -43v-164q-31 -2 -83 -2q-156 0 -224.5 66.5t-68.5 217.5 v322q0 181 -166 201z" />
<glyph unicode="|" horiz-adv-x="1228" d="M473 -281v1794h283v-1794h-283z" />
<glyph unicode="}" horiz-adv-x="696" d="M78 -98q109 8 135.5 43t26.5 166v251q0 121 41 179.5t143 85.5q-102 25 -143 84t-41 178v252q0 131 -27 165.5t-135 43.5v163q31 2 84 3q156 0 224.5 -67t68.5 -218v-322q0 -180 166 -200v-166q-166 -20 -166 -201v-322q0 -152 -69 -218t-224 -66q-53 0 -84 2v164z" />
<glyph unicode="~" horiz-adv-x="1228" d="M104 592q90 145 148.5 198.5t155.5 53.5q80 0 157 -33l137 -55q111 -45 146 -45q74 0 158 151l131 -151q-80 -131 -146.5 -185.5t-150.5 -54.5q-68 0 -187 49l-110 45q-96 39 -131 39q-53 0 -97 -45q-23 -23 -82 -121z" />
<glyph unicode="&#xa1;" horiz-adv-x="573" d="M154 -379v1129h272v-1129h-272zM154 872v263h272v-263h-272z" />
<glyph unicode="&#xa2;" d="M80 780q0 166 97 297t269 174v213h256v-213q131 -33 223.5 -125t121.5 -219h-291q-68 94 -191 94q-90 0 -151.5 -64.5t-61.5 -160.5t62.5 -159.5t158.5 -63.5q100 0 175 82h299q-106 -268 -345 -332v-223h-256v223q-164 37 -265 169t-101 308z" />
<glyph unicode="&#xa3;" d="M0 635v256h119q-35 78 -35 166q0 203 142.5 343t346.5 140q195 0 329 -120t151 -312h-277q-23 88 -75 135t-126 47q-92 0 -155.5 -70.5t-63.5 -172.5q0 -88 56 -156h424v-256h-220q66 -129 66 -225q0 -78 -27 -154q109 0 167.5 53t58.5 142q0 45 -21 110h270 q23 -59 23 -106q0 -211 -154 -344q-72 -61 -156.5 -86t-226.5 -25h-532v256h285q41 70 41 150q0 119 -119 229h-291z" />
<glyph unicode="&#xa4;" d="M55 469l86 88q-45 84 -59 135t-14 127t14 128t59 136l-86 93l164 163l92 -90q121 74 262 74q139 0 271 -74l92 88l158 -166l-86 -88q76 -131 75 -266q0 -139 -77 -262l86 -88l-158 -164l-90 86q-127 -76 -269 -76q-139 0 -268 76l-90 -86zM313 819q0 -106 78 -183 t184 -77q109 0 184 75t75 183q0 106 -75 183t-177 77q-113 0 -191 -74.5t-78 -183.5z" />
<glyph unicode="&#xa5;" d="M-72 1513h305l328 -698l330 698h315l-293 -555h189v-180h-287l-117 -215h404v-180h-404v-383h-272v383h-401v180h401l-115 215h-286v180h192z" />
<glyph unicode="&#xa6;" horiz-adv-x="1228" d="M473 -281v717h283v-717h-283zM473 797v716h283v-716h-283z" />
<glyph unicode="&#xa7;" d="M82 711q0 180 160 299q-57 88 -58 190q0 150 115 245t297 95t289.5 -98.5t132.5 -288.5h-258q-27 137 -176 137q-63 0 -101.5 -26.5t-38.5 -71.5q0 -84 125 -143l336 -166q82 -41 130 -118t48 -167q0 -176 -153 -291q102 -104 102 -244q0 -170 -124 -277.5t-316 -107.5 q-199 0 -326 114t-143 321h274q0 -184 197 -185q76 0 127 38t51 95q0 43 -29.5 73t-119.5 77l-334 172q-207 107 -207 328zM322 725q0 -66 122 -129l310 -156q76 53 75 129q0 37 -24.5 62.5t-97.5 62.5l-306 152q-79 -64 -79 -121z" />
<glyph unicode="&#xa8;" horiz-adv-x="1024" d="M152 1298v273h272v-273h-272zM582 1298v273h272v-273h-272z" />
<glyph unicode="&#xa9;" horiz-adv-x="1515" d="M41 690q0 297 210 507t507 210t507 -210t210 -507t-210 -507t-507 -210t-507 210t-210 507zM164 690q0 -246 174 -420t420 -174t420 174t174 420t-174 420t-420 174t-420 -174t-174 -420zM311 694q0 172 134.5 295t322.5 123q147 0 264 -73.5t170 -204.5h-215 q-78 96 -215 96q-113 0 -187.5 -67.5t-74.5 -170.5q0 -100 78 -170.5t186 -70.5q111 0 205 92h221q-45 -125 -160.5 -200t-261.5 -75q-195 0 -331 125t-136 301z" />
<glyph unicode="&#xaa;" horiz-adv-x="737" d="M57 1212q0 135 88 229.5t213 94.5q119 0 199 -102v79h135v-610h-135v84q-80 -104 -209 -104q-123 0 -207 95t-84 234zM63 635v143h637v-143h-637zM213 1206q0 -72 48 -122t118 -50t118 51.5t48 125t-48 123.5t-118 50t-118 -52t-48 -126z" />
<glyph unicode="&#xab;" horiz-adv-x="942" d="M74 489v205l284 267v-252l-137 -117l137 -119v-252zM510 489v205l285 267v-252l-138 -117l138 -119v-252z" />
<glyph unicode="&#xac;" horiz-adv-x="1228" d="M111 559v283h1007v-518h-282v235h-725z" />
<glyph unicode="&#xad;" horiz-adv-x="860" d="M152 469v242h567v-242h-567z" />
<glyph unicode="&#xae;" horiz-adv-x="1515" d="M41 690q0 297 210 507t507 210t507 -210t210 -507t-210 -507t-507 -210t-507 210t-210 507zM164 690q0 -246 174 -420t420 -174t420 174t174 420t-174 420t-420 174t-420 -174t-174 -420zM438 283v817h264q166 0 244 -62q98 -76 98 -209q0 -193 -204 -251l237 -295h-248 l-194 258v-258h-197zM616 709h76q92 0 133 27.5t41 88.5q0 57 -37.5 86t-142.5 29h-70v-231z" />
<glyph unicode="&#xaf;" horiz-adv-x="860" d="M152 1331v205h567v-205h-567z" />
<glyph unicode="&#xb0;" horiz-adv-x="819" d="M102 1094q0 131 91.5 221t224.5 90q127 0 213 -91t86 -222t-89 -222.5t-218 -91.5t-218.5 91.5t-89.5 224.5zM217 1092q0 -82 57.5 -139.5t135.5 -57.5q80 0 135 57.5t55 139.5t-54 139t-132 57q-82 0 -139.5 -57t-57.5 -139z" />
<glyph unicode="&#xb1;" horiz-adv-x="1228" d="M111 0v283h1007v-283h-1007zM111 653v283h362v362h283v-362h362v-283h-362v-116h-283v116h-362z" />
<glyph unicode="&#xb2;" horiz-adv-x="688" d="M20 1192q0 162 89.5 250t236.5 88q137 0 229.5 -86t92.5 -213q0 -162 -183 -307l-192 -154h371v-164h-637v152l348 303q111 94 112 174q0 57 -39.5 95t-99.5 38q-70 0 -108.5 -46t-40.5 -130h-179z" />
<glyph unicode="&#xb3;" horiz-adv-x="688" d="M8 891h180q10 -66 52.5 -102.5t108 -36.5t108.5 39.5t43 101.5q0 66 -52.5 104.5t-142.5 38.5h-43v168q94 2 132 21.5t38 64.5q0 35 -24.5 56.5t-63.5 21.5q-72 0 -86 -82h-182q12 121 84.5 181.5t181.5 60.5q117 0 193.5 -71t76.5 -177q0 -98 -69 -152q135 -63 135 -229 q0 -133 -93 -221t-236.5 -88t-238 84t-102.5 217z" />
<glyph unicode="&#xb4;" horiz-adv-x="860" d="M240 1397l458 274l111 -188l-465 -246z" />
<glyph unicode="&#xb5;" horiz-adv-x="1179" d="M111 -379v1514h272v-557q0 -72 7 -125.5t27.5 -108.5t64.5 -85t109.5 -30t109.5 30t63.5 85t27 108.5t7.5 125.5v557h272v-1135h-250v121q-82 -158 -268 -158q-80 0 -170 39v-381h-272z" />
<glyph unicode="&#xb6;" horiz-adv-x="1228" d="M76 1092q0 209 133 315t424 106h446v-1775h-207v1556h-172v-1556h-206v938q-186 2 -302 118t-116 298z" />
<glyph unicode="&#xb7;" horiz-adv-x="573" d="M156 512q0 53 38.5 92t92 39t92.5 -39t39 -92t-39 -92t-92.5 -39t-92 39t-38.5 92z" />
<glyph unicode="&#xb8;" horiz-adv-x="696" d="M152 -340h124q27 -59 78 -59q33 0 56.5 26.5t23.5 65.5q0 37 -23.5 63.5t-56.5 26.5q-39 0 -78 -55l-106 53l94 229h107l-64 -129q37 14 60 15q76 0 131 -61.5t55 -145.5q0 -90 -54.5 -145.5t-142.5 -55.5q-78 0 -135 48t-69 124z" />
<glyph unicode="&#xb9;" horiz-adv-x="688" d="M193 1350v163h301v-907h-181v744h-120z" />
<glyph unicode="&#xba;" horiz-adv-x="737" d="M63 637v143h629v-143h-629zM63 1227q0 127 93.5 218t222.5 91q131 0 222 -92t91 -223t-92 -223.5t-223 -92.5q-129 0 -221.5 94.5t-92.5 227.5zM213 1227q0 -74 46 -122t118 -48q70 0 118 47t48 119q0 70 -49.5 120t-114.5 50q-68 0 -117 -49t-49 -117z" />
<glyph unicode="&#xbb;" horiz-adv-x="942" d="M150 221v252l137 119l-137 117v252l284 -267v-205zM586 221v252l137 119l-137 117v252l284 -267v-205z" />
<glyph unicode="&#xbc;" horiz-adv-x="1720" d="M193 1350v163h301v-907h-181v744h-120zM451 0l626 1513h195l-627 -1513h-194zM1036 135v137l426 635h152v-616h98v-156h-98v-135h-180v135h-398zM1225 291h209v315z" />
<glyph unicode="&#xbd;" horiz-adv-x="1720" d="M193 1350v163h301v-907h-181v744h-120zM408 0l626 1513h195l-627 -1513h-194zM1053 586q0 162 89 250t236 88q137 0 229.5 -86t92.5 -213q0 -162 -182 -308l-193 -153h371v-164h-637v152l348 303q111 94 113 174q0 57 -40 95t-100 38q-70 0 -108.5 -46t-40.5 -130h-178z " />
<glyph unicode="&#xbe;" horiz-adv-x="1720" d="M8 891h180q10 -66 52.5 -102.5t108 -36.5t108.5 39.5t43 101.5q0 66 -52.5 104.5t-142.5 38.5h-43v168q94 2 132 21.5t38 64.5q0 35 -24.5 56.5t-63.5 21.5q-72 0 -86 -82h-182q12 121 84.5 181.5t181.5 60.5q117 0 193.5 -71t76.5 -177q0 -98 -69 -152q135 -63 135 -229 q0 -133 -93 -221t-236.5 -88t-238 84t-102.5 217zM512 0l627 1513h194l-626 -1513h-195zM1036 135v137l426 635h152v-616h98v-156h-98v-135h-180v135h-398zM1225 291h209v315z" />
<glyph unicode="&#xbf;" d="M154 63q0 102 46 183.5t162 183.5q84 74 108 131t26 191h272q0 -193 -48 -295.5t-202 -227.5q-92 -76 -92 -174q0 -82 55.5 -136t139.5 -54q162 0 188 205h272q-18 -229 -147 -352.5t-320 -123.5q-197 0 -328.5 134t-131.5 335zM496 872v263h272v-263h-272z" />
<glyph unicode="&#xc0;" horiz-adv-x="1515" d="M14 0l631 1513h221l635 -1513h-309l-162 391h-538l-168 -391h-310zM377 1841l110 189l459 -275l-104 -160zM594 659h324l-162 459z" />
<glyph unicode="&#xc1;" horiz-adv-x="1515" d="M14 0l631 1513h221l635 -1513h-309l-162 391h-538l-168 -391h-310zM565 1755l459 275l111 -189l-465 -246zM594 659h324l-162 459z" />
<glyph unicode="&#xc2;" horiz-adv-x="1515" d="M14 0l631 1513h221l635 -1513h-309l-162 391h-538l-168 -391h-310zM348 1651l301 282h219l297 -282h-297l-108 131l-111 -131h-301zM594 659h324l-162 459z" />
<glyph unicode="&#xc3;" horiz-adv-x="1515" d="M14 0l631 1513h221l635 -1513h-309l-162 391h-538l-168 -391h-310zM416 1817q53 53 100 74.5t111 21.5q25 0 107.5 -25.5t111.5 -25.5q76 0 137 69l111 -166q-92 -113 -193 -112q-27 0 -120 25.5t-111 25.5q-37 0 -60.5 -8t-83.5 -43zM594 659h324l-162 459z" />
<glyph unicode="&#xc4;" horiz-adv-x="1515" d="M14 0l631 1513h221l635 -1513h-309l-162 391h-538l-168 -391h-310zM395 1657v272h273v-272h-273zM594 659h324l-162 459zM825 1657v272h273v-272h-273z" />
<glyph unicode="&#xc5;" horiz-adv-x="1515" d="M14 0l631 1513h221l635 -1513h-309l-162 391h-538l-168 -391h-310zM524 1818.5q0 96.5 67.5 164t166.5 67.5q94 0 161.5 -67.5t67.5 -164t-67.5 -164t-164 -67.5t-164 67.5t-67.5 164zM594 659h324l-162 459zM674 1818.5q0 -32.5 23.5 -57t58.5 -24.5t58.5 24.5t23.5 57 t-23.5 57.5t-58.5 25t-58.5 -25t-23.5 -57.5z" />
<glyph unicode="&#xc6;" horiz-adv-x="1843" d="M35 0l997 1513h694v-268h-446v-356h424v-268h-424v-353h446v-268h-727v391h-397l-229 -391h-338zM764 659h235v392z" />
<glyph unicode="&#xc7;" horiz-adv-x="1597" d="M61 762q0 322 228.5 550t550.5 228q236 0 427 -122t289 -339h-313q-78 100 -172 145.5t-225 45.5q-215 0 -358.5 -147.5t-143.5 -362.5q0 -213 149.5 -364.5t358.5 -151.5q111 0 197 41t178 137h329q-86 -201 -266 -320.5t-405 -128.5l-45 -92q37 14 59 15 q76 0 131 -61.5t55 -145.5q0 -90 -54 -145.5t-142 -55.5q-78 0 -135.5 48t-69.5 124h125q27 -59 78 -59q33 0 56.5 26.5t23.5 65.5q0 37 -23.5 63.5t-56.5 26.5q-39 0 -78 -55l-107 53l80 196q-305 29 -513 253.5t-208 531.5z" />
<glyph unicode="&#xc8;" horiz-adv-x="1064" d="M139 0v1513h813v-268h-532v-356h510v-268h-510v-353h532v-268h-813zM168 1841l111 189l458 -275l-104 -160z" />
<glyph unicode="&#xc9;" horiz-adv-x="1064" d="M139 0v1513h813v-268h-532v-356h510v-268h-510v-353h532v-268h-813zM356 1755l459 275l111 -189l-465 -246z" />
<glyph unicode="&#xca;" horiz-adv-x="1064" d="M139 0v1513h813v-268h-532v-356h510v-268h-510v-353h532v-268h-813zM139 1651l301 282h219l297 -282h-297l-108 131l-111 -131h-301z" />
<glyph unicode="&#xcb;" horiz-adv-x="1064" d="M139 0v1513h813v-268h-532v-356h510v-268h-510v-353h532v-268h-813zM186 1657v272h273v-272h-273zM616 1657v272h273v-272h-273z" />
<glyph unicode="&#xcc;" horiz-adv-x="573" d="M-45 1841l111 189l458 -275l-104 -160zM139 0v1513h281v-1513h-281z" />
<glyph unicode="&#xcd;" horiz-adv-x="573" d="M35 1755l459 275l110 -189l-465 -246zM139 0v1513h281v-1513h-281z" />
<glyph unicode="&#xce;" horiz-adv-x="573" d="M-127 1651l301 282h219l297 -282h-297l-108 131l-111 -131h-301zM139 0v1513h281v-1513h-281z" />
<glyph unicode="&#xcf;" horiz-adv-x="573" d="M-80 1657v272h273v-272h-273zM139 0v1513h281v-1513h-281zM350 1657v272h273v-272h-273z" />
<glyph unicode="&#xd0;" horiz-adv-x="1519" d="M29 645v219h196v649h346q356 0 537 -108q158 -94 244 -265t86 -388q0 -229 -98.5 -405.5t-272.5 -262.5q-168 -84 -489 -84h-353v645h-196zM506 268h61q248 0 369 68q102 55 160.5 167.5t58.5 250.5q0 145 -62.5 259.5t-168.5 170.5q-121 61 -363 61h-55v-381h315v-219 h-315v-377z" />
<glyph unicode="&#xd1;" horiz-adv-x="1515" d="M139 0v1513h320l626 -1101v1101h281v-1513h-313l-633 1100v-1100h-281zM414 1817q53 53 100 74.5t111 21.5q25 0 107.5 -25.5t111.5 -25.5q76 0 137 69l111 -166q-92 -113 -193 -112q-27 0 -120 25.5t-111 25.5q-37 0 -60.5 -8t-83.5 -43z" />
<glyph unicode="&#xd2;" horiz-adv-x="1720" d="M61 756q0 332 230.5 558t568.5 226q324 0 551 -229.5t227 -552.5q0 -332 -225 -558.5t-555 -226.5q-334 0 -565.5 227.5t-231.5 555.5zM344 756q0 -215 148.5 -363.5t363.5 -148.5t357.5 145.5t142.5 364.5q0 217 -144.5 366.5t-355.5 149.5q-219 0 -365.5 -147.5 t-146.5 -366.5zM481 1841l111 189l459 -275l-105 -160z" />
<glyph unicode="&#xd3;" horiz-adv-x="1720" d="M61 756q0 332 230.5 558t568.5 226q324 0 551 -229.5t227 -552.5q0 -332 -225 -558.5t-555 -226.5q-334 0 -565.5 227.5t-231.5 555.5zM344 756q0 -215 148.5 -363.5t363.5 -148.5t357.5 145.5t142.5 364.5q0 217 -144.5 366.5t-355.5 149.5q-219 0 -365.5 -147.5 t-146.5 -366.5zM670 1755l458 275l111 -189l-465 -246z" />
<glyph unicode="&#xd4;" horiz-adv-x="1720" d="M61 756q0 332 230.5 558t568.5 226q324 0 551 -229.5t227 -552.5q0 -332 -225 -558.5t-555 -226.5q-334 0 -565.5 227.5t-231.5 555.5zM344 756q0 -215 148.5 -363.5t363.5 -148.5t357.5 145.5t142.5 364.5q0 217 -144.5 366.5t-355.5 149.5q-219 0 -365.5 -147.5 t-146.5 -366.5zM453 1651l301 282h219l297 -282h-297l-109 131l-110 -131h-301z" />
<glyph unicode="&#xd5;" horiz-adv-x="1720" d="M61 756q0 332 230.5 558t568.5 226q324 0 551 -229.5t227 -552.5q0 -332 -225 -558.5t-555 -226.5q-334 0 -565.5 227.5t-231.5 555.5zM344 756q0 -215 148.5 -363.5t363.5 -148.5t357.5 145.5t142.5 364.5q0 217 -144.5 366.5t-355.5 149.5q-219 0 -365.5 -147.5 t-146.5 -366.5zM520 1817q53 53 100.5 74.5t110.5 21.5q25 0 108 -25.5t111 -25.5q76 0 137 69l111 -166q-92 -113 -192 -112q-27 0 -120 25.5t-112 25.5q-37 0 -60.5 -8t-82.5 -43z" />
<glyph unicode="&#xd6;" horiz-adv-x="1720" d="M61 756q0 332 230.5 558t568.5 226q324 0 551 -229.5t227 -552.5q0 -332 -225 -558.5t-555 -226.5q-334 0 -565.5 227.5t-231.5 555.5zM344 756q0 -215 148.5 -363.5t363.5 -148.5t357.5 145.5t142.5 364.5q0 217 -144.5 366.5t-355.5 149.5q-219 0 -365.5 -147.5 t-146.5 -366.5zM500 1657v272h272v-272h-272zM930 1657v272h272v-272h-272z" />
<glyph unicode="&#xd7;" horiz-adv-x="1228" d="M158 256l256 256l-256 256l200 201l256 -256l256 256l201 -201l-256 -256l256 -256l-201 -201l-256 256l-256 -256z" />
<glyph unicode="&#xd8;" horiz-adv-x="1720" d="M61 758q0 326 230.5 554t560.5 228q174 0 338 -72l127 189l194 -135l-125 -185q258 -236 259 -579q0 -332 -226.5 -558.5t-556.5 -226.5q-182 0 -344 74l-123 -180l-196 133l120 178q-123 111 -190.5 263.5t-67.5 316.5zM344 758q0 -195 133 -346l557 827q-88 31 -182 31 q-213 0 -360.5 -148.5t-147.5 -363.5zM674 276q92 -33 186 -32q215 0 358.5 145.5t143.5 364.5q0 199 -131 352z" />
<glyph unicode="&#xd9;" horiz-adv-x="1310" d="M139 555v958h281v-958q0 -168 58.5 -239.5t172.5 -71.5q113 0 171.5 70.5t58.5 240.5v958h280v-958q0 -283 -140 -432.5t-372 -149.5q-229 0 -369.5 150.5t-140.5 431.5zM272 1841l111 189l459 -275l-105 -160z" />
<glyph unicode="&#xda;" horiz-adv-x="1310" d="M139 555v958h281v-958q0 -168 58.5 -239.5t172.5 -71.5q113 0 171.5 70.5t58.5 240.5v958h280v-958q0 -283 -140 -432.5t-372 -149.5q-229 0 -369.5 150.5t-140.5 431.5zM461 1755l459 275l110 -189l-465 -246z" />
<glyph unicode="&#xdb;" horiz-adv-x="1310" d="M139 555v958h281v-958q0 -168 58.5 -239.5t172.5 -71.5q113 0 171.5 70.5t58.5 240.5v958h280v-958q0 -283 -140 -432.5t-372 -149.5q-229 0 -369.5 150.5t-140.5 431.5zM244 1651l301 282h219l297 -282h-297l-109 131l-110 -131h-301z" />
<glyph unicode="&#xdc;" horiz-adv-x="1310" d="M139 555v958h281v-958q0 -168 58.5 -239.5t172.5 -71.5q113 0 171.5 70.5t58.5 240.5v958h280v-958q0 -283 -140 -432.5t-372 -149.5q-229 0 -369.5 150.5t-140.5 431.5zM291 1657v272h272v-272h-272zM721 1657v272h272v-272h-272z" />
<glyph unicode="&#xdd;" horiz-adv-x="1269" d="M6 1513h303l336 -696l334 696h303l-498 -954v-559h-280v559zM455 1755l458 275l111 -189l-465 -246z" />
<glyph unicode="&#xde;" d="M139 0v1513h281v-268h94q270 0 387 -69q205 -125 205 -398q0 -131 -53.5 -239.5t-145.5 -165.5q-63 -39 -150 -53.5t-247 -14.5h-90v-305h-281zM420 573h82q182 0 251.5 48.5t69.5 150.5q0 119 -70.5 162t-238.5 43h-94v-404z" />
<glyph unicode="&#xdf;" horiz-adv-x="1228" d="M104 0v997q0 254 121 398.5t332 144.5q188 0 317.5 -121t129.5 -301q0 -197 -154 -282q172 -41 259 -144.5t87 -249.5q0 -207 -134 -338t-345 -131q-248 0 -363 189v-162h-250zM377 387h168q14 -70 68.5 -117t121.5 -47q80 0 133.5 56.5t53.5 140.5q0 117 -82 171 t-295 54h-23v242h23q80 0 132 60.5t52 150.5q0 88 -48 140t-126 52q-178 0 -178 -260v-643z" />
<glyph unicode="&#xe0;" horiz-adv-x="1351" d="M61 563q0 260 163 429t415 169q236 0 371 -178v152h250v-1135h-250v147q-82 -92 -170 -133t-207 -41q-248 0 -410 167t-162 423zM297 1483l111 188l458 -274l-104 -160zM336 557q0 -150 93 -242t243 -92q152 0 240.5 95.5t88.5 240.5q0 156 -94 254t-239.5 98t-238.5 -99 t-93 -255z" />
<glyph unicode="&#xe1;" horiz-adv-x="1351" d="M61 563q0 260 163 429t415 169q236 0 371 -178v152h250v-1135h-250v147q-82 -92 -170 -133t-207 -41q-248 0 -410 167t-162 423zM336 557q0 -150 93 -242t243 -92q152 0 240.5 95.5t88.5 240.5q0 156 -94 254t-239.5 98t-238.5 -99t-93 -255zM485 1397l459 274l111 -188 l-465 -246z" />
<glyph unicode="&#xe2;" horiz-adv-x="1351" d="M61 563q0 260 163 429t415 169q236 0 371 -178v152h250v-1135h-250v147q-82 -92 -170 -133t-207 -41q-248 0 -410 167t-162 423zM268 1292l301 283h219l297 -283h-297l-108 131l-111 -131h-301zM336 557q0 -150 93 -242t243 -92q152 0 240.5 95.5t88.5 240.5 q0 156 -94 254t-239.5 98t-238.5 -99t-93 -255z" />
<glyph unicode="&#xe3;" horiz-adv-x="1351" d="M61 563q0 260 163 429t415 169q236 0 371 -178v152h250v-1135h-250v147q-82 -92 -170 -133t-207 -41q-248 0 -410 167t-162 423zM336 557q0 -150 93 -242t243 -92q152 0 240.5 95.5t88.5 240.5q0 156 -94 254t-239.5 98t-238.5 -99t-93 -255zM336 1458q53 53 100 74.5 t111 21.5q25 0 107.5 -25.5t111.5 -25.5q76 0 137 70l111 -166q-92 -113 -193 -113q-27 0 -120 26t-111 26q-37 0 -60.5 -8.5t-83.5 -43.5z" />
<glyph unicode="&#xe4;" horiz-adv-x="1351" d="M61 563q0 260 163 429t415 169q236 0 371 -178v152h250v-1135h-250v147q-82 -92 -170 -133t-207 -41q-248 0 -410 167t-162 423zM315 1298v273h273v-273h-273zM336 557q0 -150 93 -242t243 -92q152 0 240.5 95.5t88.5 240.5q0 156 -94 254t-239.5 98t-238.5 -99t-93 -255 zM745 1298v273h273v-273h-273z" />
<glyph unicode="&#xe5;" horiz-adv-x="1351" d="M61 563q0 260 163 429t415 169q236 0 371 -178v152h250v-1135h-250v147q-82 -92 -170 -133t-207 -41q-248 0 -410 167t-162 423zM336 557q0 -150 93 -242t243 -92q152 0 240.5 95.5t88.5 240.5q0 156 -94 254t-239.5 98t-238.5 -99t-93 -255zM444 1454q0 96 68 164 t166 68q94 0 161.5 -68t67.5 -164t-67.5 -163.5t-163.5 -67.5t-164 67.5t-68 163.5zM594 1454q0 -33 24.5 -57.5t57.5 -24.5t57.5 24.5t24.5 57.5t-24.5 57.5t-57.5 24.5t-57.5 -24.5t-24.5 -57.5z" />
<glyph unicode="&#xe6;" horiz-adv-x="2211" d="M61 563q0 254 170 426t420 172q209 0 342 -139v113h250v-113q137 139 342 139q238 0 402.5 -166t164.5 -405q0 -61 -18 -141h-877q35 -106 120 -166t200 -60q145 0 240 113h297q-51 -156 -201 -259.5t-324 -103.5q-217 0 -346 150v-123h-250v123q-70 -82 -145.5 -116 t-192.5 -34q-256 0 -425 168t-169 422zM336 573q0 -152 93 -251t237 -99q137 0 228 98.5t91 243.5q0 147 -93 246.5t-230.5 99.5t-231.5 -98.5t-94 -239.5zM1243 690h623q-59 221 -307 221q-238 0 -316 -221z" />
<glyph unicode="&#xe7;" horiz-adv-x="1310" d="M61 567q0 250 173.5 422t424.5 172q197 0 351.5 -106.5t220.5 -298.5h-307q-82 156 -265 155q-141 0 -232 -96t-91 -245.5t94 -248t236 -98.5q162 0 258 150h307q-68 -182 -206 -285.5t-325 -114.5l-45 -92q37 14 60 15q76 0 131 -61.5t55 -145.5q0 -90 -54 -145.5 t-142 -55.5q-78 0 -135.5 48t-69.5 124h125q27 -59 77 -59q33 0 56.5 26.5t23.5 65.5q0 37 -23.5 63.5t-56.5 26.5q-39 0 -77 -55l-107 53l80 196q-229 25 -383 193t-154 397z" />
<glyph unicode="&#xe8;" horiz-adv-x="1310" d="M61 563q0 250 174.5 424t423.5 174q254 0 420 -173t166 -437q0 -55 -10 -105h-879q25 -102 109 -162.5t205 -60.5q84 0 140 25.5t110 87.5h297q-55 -168 -208 -265.5t-333 -97.5q-260 0 -437.5 170t-177.5 420zM281 1483l110 188l459 -274l-105 -160zM348 686h629 q-27 109 -108 167t-205 58q-248 0 -316 -225z" />
<glyph unicode="&#xe9;" horiz-adv-x="1310" d="M61 563q0 250 174.5 424t423.5 174q254 0 420 -173t166 -437q0 -55 -10 -105h-879q25 -102 109 -162.5t205 -60.5q84 0 140 25.5t110 87.5h297q-55 -168 -208 -265.5t-333 -97.5q-260 0 -437.5 170t-177.5 420zM348 686h629q-27 109 -108 167t-205 58q-248 0 -316 -225z M469 1397l459 274l110 -188l-465 -246z" />
<glyph unicode="&#xea;" horiz-adv-x="1310" d="M61 563q0 250 174.5 424t423.5 174q254 0 420 -173t166 -437q0 -55 -10 -105h-879q25 -102 109 -162.5t205 -60.5q84 0 140 25.5t110 87.5h297q-55 -168 -208 -265.5t-333 -97.5q-260 0 -437.5 170t-177.5 420zM252 1292l301 283h219l297 -283h-297l-108 131l-111 -131 h-301zM348 686h629q-27 109 -108 167t-205 58q-248 0 -316 -225z" />
<glyph unicode="&#xeb;" horiz-adv-x="1310" d="M61 563q0 250 174.5 424t423.5 174q254 0 420 -173t166 -437q0 -55 -10 -105h-879q25 -102 109 -162.5t205 -60.5q84 0 140 25.5t110 87.5h297q-55 -168 -208 -265.5t-333 -97.5q-260 0 -437.5 170t-177.5 420zM299 1298v273h272v-273h-272zM348 686h629 q-27 109 -108 167t-205 58q-248 0 -316 -225zM729 1298v273h272v-273h-272z" />
<glyph unicode="&#xec;" horiz-adv-x="491" d="M-82 1483l111 188l458 -274l-104 -160zM111 0v1135h272v-1135h-272z" />
<glyph unicode="&#xed;" horiz-adv-x="491" d="M6 1397l459 274l110 -188l-464 -246zM111 0v1135h272v-1135h-272z" />
<glyph unicode="&#xee;" horiz-adv-x="491" d="M-160 1292l301 283h219l297 -283h-297l-108 131l-111 -131h-301zM111 0v1135h272v-1135h-272z" />
<glyph unicode="&#xef;" horiz-adv-x="491" d="M-113 1298v273h273v-273h-273zM111 0v1135h272v-1135h-272zM317 1298v273h273v-273h-273z" />
<glyph unicode="&#xf0;" horiz-adv-x="1310" d="M61 569q0 229 161 399.5t388 170.5q53 0 138 -19l-58 58q-57 57 -100 94l-178 -82l-82 94l159 76l-143 117l211 71q10 -6 20.5 -13t12.5 -9l61 -47q2 0 39 -27l178 82l84 -100l-159 -72q260 -223 367.5 -402.5t107.5 -377.5q0 -256 -174 -432.5t-428 -176.5 q-250 0 -427.5 175t-177.5 421zM336 571q0 -145 96 -246.5t234 -101.5q135 0 231 100.5t96 243.5q0 141 -96 242.5t-233 101.5q-133 0 -230.5 -100.5t-97.5 -239.5z" />
<glyph unicode="&#xf1;" horiz-adv-x="1228" d="M111 0v1135h251v-109q141 135 320 135q242 0 354 -164q45 -66 63.5 -151.5t18.5 -237.5v-608h-272v555q0 213 -52.5 284.5t-164.5 71.5q-135 0 -201 -104q-45 -72 -45 -272v-535h-272zM274 1458q53 53 100.5 74.5t110.5 21.5q25 0 108 -25.5t112 -25.5q76 0 137 70 l110 -166q-92 -113 -192 -113q-27 0 -120 26t-112 26q-37 0 -60.5 -8.5t-82.5 -43.5z" />
<glyph unicode="&#xf2;" horiz-adv-x="1310" d="M61 567q0 244 176.5 419t424.5 175q256 0 431 -174t175 -428q0 -240 -178.5 -413t-425.5 -173q-250 0 -426.5 174t-176.5 420zM283 1483l110 188l459 -274l-104 -160zM336 571q0 -145 96 -246.5t234 -101.5q135 0 231 100.5t96 243.5q0 141 -96 242.5t-233 101.5 q-133 0 -230.5 -100.5t-97.5 -239.5z" />
<glyph unicode="&#xf3;" horiz-adv-x="1310" d="M61 567q0 244 176.5 419t424.5 175q256 0 431 -174t175 -428q0 -240 -178.5 -413t-425.5 -173q-250 0 -426.5 174t-176.5 420zM336 571q0 -145 96 -246.5t234 -101.5q135 0 231 100.5t96 243.5q0 141 -96 242.5t-233 101.5q-133 0 -230.5 -100.5t-97.5 -239.5zM471 1397 l459 274l110 -188l-465 -246z" />
<glyph unicode="&#xf4;" horiz-adv-x="1310" d="M61 567q0 244 176.5 419t424.5 175q256 0 431 -174t175 -428q0 -240 -178.5 -413t-425.5 -173q-250 0 -426.5 174t-176.5 420zM254 1292l301 283h219l297 -283h-297l-108 131l-111 -131h-301zM336 571q0 -145 96 -246.5t234 -101.5q135 0 231 100.5t96 243.5 q0 141 -96 242.5t-233 101.5q-133 0 -230.5 -100.5t-97.5 -239.5z" />
<glyph unicode="&#xf5;" horiz-adv-x="1310" d="M61 567q0 244 176.5 419t424.5 175q256 0 431 -174t175 -428q0 -240 -178.5 -413t-425.5 -173q-250 0 -426.5 174t-176.5 420zM322 1458q53 53 100 74.5t110 21.5q25 0 108 -25.5t112 -25.5q76 0 137 70l110 -166q-92 -113 -192 -113q-27 0 -120 26t-112 26 q-37 0 -60 -8.5t-83 -43.5zM336 571q0 -145 96 -246.5t234 -101.5q135 0 231 100.5t96 243.5q0 141 -96 242.5t-233 101.5q-133 0 -230.5 -100.5t-97.5 -239.5z" />
<glyph unicode="&#xf6;" horiz-adv-x="1310" d="M61 567q0 244 176.5 419t424.5 175q256 0 431 -174t175 -428q0 -240 -178.5 -413t-425.5 -173q-250 0 -426.5 174t-176.5 420zM301 1298v273h272v-273h-272zM336 571q0 -145 96 -246.5t234 -101.5q135 0 231 100.5t96 243.5q0 141 -96 242.5t-233 101.5 q-133 0 -230.5 -100.5t-97.5 -239.5zM731 1298v273h273v-273h-273z" />
<glyph unicode="&#xf7;" horiz-adv-x="1228" d="M111 371v282h1007v-282h-1007zM483 133q0 55 39 93t92.5 38t92 -38t38.5 -93q0 -53 -38.5 -92t-92 -39t-92.5 39t-39 92zM483 891q0 53 39 92t92.5 39t92 -39t38.5 -92q0 -55 -38.5 -93t-92 -38t-92.5 38t-39 93z" />
<glyph unicode="&#xf8;" horiz-adv-x="1351" d="M61 567q0 246 178.5 420t428.5 174q115 0 223 -43l106 158l177 -119l-103 -149q199 -182 199 -441q0 -246 -176 -420t-426 -174q-135 0 -258 58l-115 -168l-174 117l117 172q-177 165 -177 415zM336 569q0 -102 55 -190l352 522q-39 10 -77 10q-135 0 -232.5 -100.5 t-97.5 -241.5zM555 244q55 -20 111 -21q137 0 233 100.5t96 241.5q0 121 -73 219z" />
<glyph unicode="&#xf9;" horiz-adv-x="1228" d="M111 526v609h272v-555q0 -211 53 -284t162 -73q141 0 207 105q43 72 43 272v535h272v-1135h-252v109q-76 -76 -149.5 -106t-175.5 -30q-432 0 -432 553zM238 1483l110 188l459 -274l-105 -160z" />
<glyph unicode="&#xfa;" horiz-adv-x="1228" d="M111 526v609h272v-555q0 -211 53 -284t162 -73q141 0 207 105q43 72 43 272v535h272v-1135h-252v109q-76 -76 -149.5 -106t-175.5 -30q-432 0 -432 553zM426 1397l459 274l110 -188l-465 -246z" />
<glyph unicode="&#xfb;" horiz-adv-x="1228" d="M111 526v609h272v-555q0 -211 53 -284t162 -73q141 0 207 105q43 72 43 272v535h272v-1135h-252v109q-76 -76 -149.5 -106t-175.5 -30q-432 0 -432 553zM209 1292l301 283h219l297 -283h-297l-108 131l-111 -131h-301z" />
<glyph unicode="&#xfc;" horiz-adv-x="1228" d="M111 526v609h272v-555q0 -211 53 -284t162 -73q141 0 207 105q43 72 43 272v535h272v-1135h-252v109q-76 -76 -149.5 -106t-175.5 -30q-432 0 -432 553zM256 1298v273h272v-273h-272zM686 1298v273h272v-273h-272z" />
<glyph unicode="&#xfd;" horiz-adv-x="1187" d="M12 1135h312l251 -736l275 736h313l-655 -1514h-293l213 485zM397 1397l459 274l111 -188l-465 -246z" />
<glyph unicode="&#xfe;" horiz-adv-x="1351" d="M111 -379v1892h272v-499q135 147 352 147q246 0 404.5 -168t158.5 -426q0 -260 -158.5 -427t-404.5 -167q-217 0 -352 148v-500h-272zM367 571q0 -150 94 -249t237 -99q137 0 231.5 99.5t94.5 245t-94 244.5t-232 99q-141 0 -236 -97.5t-95 -242.5z" />
<glyph unicode="&#xff;" horiz-adv-x="1187" d="M12 1135h312l251 -736l275 736h313l-655 -1514h-293l213 485zM227 1298v273h273v-273h-273zM657 1298v273h273v-273h-273z" />
<glyph unicode="&#x152;" horiz-adv-x="2170" d="M78 756q0 336 219 560t549 224q309 0 479 -194v167h731v-268h-446v-356h424v-268h-424v-353h446v-268h-731v166q-174 -193 -469 -193q-332 0 -555 224.5t-223 558.5zM360 748q0 -213 141.5 -358.5t350.5 -145.5q211 0 347 144t136 365.5t-138 369t-347 147.5 q-213 0 -351.5 -151.5t-138.5 -370.5z" />
<glyph unicode="&#x153;" horiz-adv-x="2211" d="M61 567q0 248 172.5 421t421.5 173q279 0 457 -227q98 121 204.5 174t244.5 53q256 0 420.5 -166t164.5 -413q0 -66 -10 -136h-879q35 -102 118 -162.5t196 -60.5q70 0 138.5 31t109.5 80h290q-59 -164 -205.5 -262.5t-330.5 -98.5q-299 0 -461 232q-160 -231 -448 -232 q-258 0 -430.5 170t-172.5 424zM336 575q0 -152 96 -252t242 -100q137 0 229 98.5t92 243.5q0 147 -95 246.5t-234 99.5q-137 0 -233.5 -98.5t-96.5 -237.5zM1245 686h619q-66 225 -308 225q-233 0 -311 -225z" />
<glyph unicode="&#x178;" horiz-adv-x="1269" d="M6 1513h303l336 -696l334 696h303l-498 -954v-559h-280v559zM285 1657v272h272v-272h-272zM715 1657v272h272v-272h-272z" />
<glyph unicode="&#x2c6;" horiz-adv-x="1105" d="M145 1292l301 283h220l297 -283h-297l-109 131l-111 -131h-301z" />
<glyph unicode="&#x2dc;" horiz-adv-x="983" d="M152 1458q53 53 100 74.5t110 21.5q25 0 108 -25.5t112 -25.5q76 0 137 70l110 -166q-92 -113 -192 -113q-27 0 -120 26t-111 26q-37 0 -60.5 -8.5t-83.5 -43.5z" />
<glyph unicode="&#x2000;" horiz-adv-x="1024" />
<glyph unicode="&#x2001;" horiz-adv-x="2050" />
<glyph unicode="&#x2002;" horiz-adv-x="1024" />
<glyph unicode="&#x2003;" horiz-adv-x="2050" />
<glyph unicode="&#x2004;" horiz-adv-x="681" />
<glyph unicode="&#x2005;" horiz-adv-x="512" />
<glyph unicode="&#x2006;" horiz-adv-x="339" />
<glyph unicode="&#x2007;" horiz-adv-x="339" />
<glyph unicode="&#x2008;" horiz-adv-x="256" />
<glyph unicode="&#x2009;" horiz-adv-x="409" />
<glyph unicode="&#x200a;" horiz-adv-x="112" />
<glyph unicode="&#x2010;" horiz-adv-x="860" d="M152 469v242h567v-242h-567z" />
<glyph unicode="&#x2011;" horiz-adv-x="860" d="M152 469v242h567v-242h-567z" />
<glyph unicode="&#x2012;" horiz-adv-x="860" d="M152 469v242h567v-242h-567z" />
<glyph unicode="&#x2013;" horiz-adv-x="1024" d="M0 469v242h1024v-242h-1024z" />
<glyph unicode="&#x2014;" horiz-adv-x="2048" d="M0 469v242h2048v-242h-2048z" />
<glyph unicode="&#x2018;" horiz-adv-x="573" d="M147 954v287q0 123 74 197.5t199 74.5v-137q-66 -12 -93.5 -38.5t-27.5 -77.5q0 -20 2 -33h119v-273h-273z" />
<glyph unicode="&#x2019;" horiz-adv-x="573" d="M147 954v138q66 12 93.5 40.5t27.5 81.5q0 23 -2 37h-119v262h273v-286q0 -123 -71 -198t-202 -75z" />
<glyph unicode="&#x201a;" horiz-adv-x="573" d="M143 0v262h273v-276q0 -123 -71 -198t-202 -75v137q66 12 93.5 39t27.5 76q0 23 -2 35h-119z" />
<glyph unicode="&#x201c;" horiz-adv-x="983" d="M143 954v287q0 123 74 197.5t199 74.5v-137q-66 -12 -93.5 -38.5t-27.5 -80.5l2 -30h119v-273h-273zM567 954v287q0 123 74 197.5t199 74.5v-137q-66 -12 -93.5 -38.5t-27.5 -75.5q0 -23 2 -35h119v-273h-273z" />
<glyph unicode="&#x201d;" horiz-adv-x="983" d="M143 954v138q63 12 92 41.5t29 80.5q0 23 -2 37h-119v262h273v-286q0 -123 -72 -198t-201 -75zM567 954v138q66 12 93.5 40.5t27.5 81.5q0 23 -2 37h-119v262h273v-286q0 -123 -72 -198t-201 -75z" />
<glyph unicode="&#x201e;" horiz-adv-x="983" d="M143 0v262h273v-276q0 -123 -71 -198t-202 -75v137q66 12 93.5 39t27.5 76q0 23 -2 35h-119zM567 0v262h273v-276q0 -123 -72 -198t-201 -75v137q66 12 93.5 39t27.5 76q0 23 -2 35h-119z" />
<glyph unicode="&#x2022;" horiz-adv-x="1228" d="M274 647q0 141 101.5 242.5t242.5 101.5q143 0 245 -100t102 -244q0 -145 -101.5 -245.5t-249.5 -100.5q-139 0 -239.5 102.5t-100.5 243.5z" />
<glyph unicode="&#x2026;" horiz-adv-x="2048" d="M205 0v262h272v-262h-272zM885 0v262h272v-262h-272zM1567 0v262h274v-262h-274z" />
<glyph unicode="&#x202f;" horiz-adv-x="409" />
<glyph unicode="&#x2039;" horiz-adv-x="491" d="M74 489v205l284 267v-252l-137 -117l137 -119v-252z" />
<glyph unicode="&#x203a;" horiz-adv-x="491" d="M150 221v252l137 119l-137 117v252l284 -267v-205z" />
<glyph unicode="&#x205f;" horiz-adv-x="512" />
<glyph unicode="&#x20ac;" d="M-68 805l50 180h161q68 291 220.5 421t406.5 130q127 0 224.5 -29.5t224.5 -105.5l-80 -211q-201 119 -375 119q-139 0 -221 -76t-129 -248h645l-68 -180h-592v-92h557l-69 -181h-477q37 -150 132 -233.5t234 -83.5q100 0 299 82v-252q-166 -68 -327 -68q-190 0 -338 95 q-106 63 -167 167.5t-102 292.5h-207l50 181h141v39q0 31 2 53h-195z" />
<glyph unicode="&#x2122;" horiz-adv-x="2048" d="M111 1317v196h604v-196h-187v-688h-231v688h-186zM844 629v884h293l256 -600l252 600h292v-884h-231v538l-225 -538h-181l-225 538v-538h-231z" />
<glyph unicode="&#xe000;" horiz-adv-x="1135" d="M0 1135h1135v-1135h-1135v1135z" />
<glyph unicode="&#xfb01;" horiz-adv-x="1064" d="M20 887v227h99q41 399 375 399q35 0 67 -4v-258h-26q-80 0 -111 -29.5t-33 -107.5h154v-227h-154v-887h-272v887h-99zM684 0v1135h272v-1135h-272zM686 1298v273h272v-273h-272z" />
<glyph unicode="&#xfb02;" horiz-adv-x="1064" d="M20 887v227h99q41 399 375 399q35 0 67 -4v-258h-26q-80 0 -111 -29.5t-33 -107.5h154v-227h-154v-887h-272v887h-99zM684 0v1513h272v-1513h-272z" />
<glyph unicode="&#xfb03;" horiz-adv-x="1630" d="M20 887v227h99q41 399 375 399q35 0 67 -4v-258h-26q-80 0 -111 -29.5t-33 -107.5h293q41 399 375 399q35 0 67 -4v-258h-26q-80 0 -111 -29.5t-33 -107.5h154v-227h-154v-887h-272v887h-293v-887h-272v887h-99zM1249 0v1135h273v-1135h-273zM1251 1298v273h273v-273 h-273z" />
<glyph unicode="&#xfb04;" horiz-adv-x="1630" d="M20 887v227h99q41 399 375 399q35 0 67 -4v-258h-26q-80 0 -111 -29.5t-33 -107.5h293q41 399 375 399q35 0 67 -4v-258h-26q-80 0 -111 -29.5t-33 -107.5h154v-227h-154v-887h-272v887h-293v-887h-272v887h-99zM1249 0v1513h273v-1513h-273z" />
</font>
</defs>
</svg>
